coor
武林高手

[2019] [其他] [其他] [BD-1080P] 重新发行:两个人。两年。梦想 Break.Free.Two.People.Two.Years.One.Dream.2019.1080p.BluRay.x264-

-->

帖子完整标题:重新发行:两个人。两年。梦想 Break.Free.Two.People.Two.Years.One.Dream.2019.1080p.BluRay.x264-PussyFoot 8.75GB




◎译  名 重新发行:两个人。两年。梦想
◎片  名 Reiss Aus: Zwei Menschen. Zwei Jahre. Ein Traum
◎年  代 2019
◎产  地 德国
◎类  别 纪录片
◎语  言 德语
◎上映日期 2019-03-14(德国)
◎IMDb评分 7.1/10 from 79 users
◎IMDb链接 https://www.imdb.com/title/tt9725216
◎豆瓣评分 0/10 from 0 users
◎豆瓣链接 https://movie.douban.com/subject/30469459/
◎片  长 120分钟
◎导  演 Lena Wendt / Ulrich Stirnat
◎主  演 Lena Wendt
      Ulrich Stirnat


◎简  介

  Ein halbes Jahr Auszeit wollen sich Ulli und Lena nehmen und von Hamburg nach Südafrika fahren. Dort kommen sie nie an. Stattdessen rollen sie in ihrem alten Land Rover Terés und dem knapp 40 Jahre alten Dachzelt, das sie von Ullis Patentante geschenkt bekommen haben, knapp zwei Jahre durch Westafrika. Es geht um Einiges: Darum, sich selbst wieder zu finden, sich wieder zu spüren. Und nicht eher umzudrehen, bis sich an der eigenen Einstellung zum Leben etwas grundlegend ver?ndert hat. Auf 46.000 Kilometern, mehr als einmal um die Welt, erleben die zwei tagt?glich Abenteuer. Von denen manche nur schwer zu verdauen sind.Ein Film, der die wunderbaren, auch aber die Schattenseiten des Reisens offenbart. Der einen mitnimmt, aufwühlt, froh macht, schockiert und erstaunt. Der Mut macht, den eigenen Traum anzugehen. Ein Film, der ansteckt mit der Faszination und Liebe für Afrika.
Video
ID : 1
Format : AVC
Format/Info : Advanced Video Codec
Format profile : [email protected]
Format settings : CABAC / 5 Ref Frames
Format settings, CABAC : Yes
Format settings, Reference frames : 5 frames
Codec ID : V_MPEG4/ISO/AVC
Duration : 1 h 59 min
Bit rate : 9 922 kb/s
Width : 1 920 pixels
Height : 808 pixels
Display aspect ratio : 2.40:1
Frame rate mode : Constant
Frame rate : 25.000 FPS
Color space : YUV
Chroma subsampling : 4:2:0
Bit depth : 8 bits
Scan type : Progressive
Bits/(Pixel*Frame) : 0.256
Stream size : 8.31 GiB (95%)
Writing library : x264 core 157 r2969 d4099dd
Encoding settings : cabac=1 / ref=5 / deblock=1:-3:-3 / analyse=0x3:0x133 / me=umh / subme=8 / psy=1 / psy_rd=1.00:0.15 / mixed_ref=1 / me_range=16 / chroma_me=1 / trellis=2 / 8x8dct=1 / cqm=0 / deadzone=21,11 / fast_pskip=0 / chroma_qp_offset=-3 / threads=25 / lookahead_threads=4 / sliced_threads=0 / nr=0 / decimate=1 / interlaced=0 / bluray_compat=0 / constrained_intra=0 / bframes=3 / b_pyramid=2 / b_adapt=2 / b_bias=0 / direct=3 / weightb=1 / open_gop=0 / weightp=2 / keyint=240 / keyint_min=24 / scenecut=40 / intra_refresh=0 / rc_lookahead=40 / rc=2pass / mbtree=1 / bitrate=9922 / ratetol=1.0 / qcomp=0.60 / qpmin=0 / qpmax=69 / qpstep=4 / cplxblur=20.0 / qblur=0.5 / ip_ratio=1.40 / aq=1:1.00
Default : Yes
Forced : No

Audio
ID : 2
Format : AC-3
Format/Info : Audio Coding 3
Commercial name : Dolby Digital
Codec ID : A_AC3
Duration : 1 h 59 min
Bit rate mode : Constant
Bit rate : 512 kb/s
Channel(s) : 6 channels
Channel layout : L R C LFE Ls Rs
Sampling rate : 48.0 kHz
Frame rate : 31.250 FPS (1536 SPF)
Bit depth : 16 bits
Compression mode : Lossy
Stream size : 439 MiB (5%)
Language : German
Service kind : Complete Main
Default : Yes
Forced : No

Text
ID : 3
Format : UTF-8
Codec ID : S_TEXT/UTF8
Codec ID/Info : UTF-8 Plain Text
Duration : 1 h 59 min
Bit rate : 61 b/s
Count of elements : 1248
Stream size : 54.2 KiB (0%)
Language : English
Default : Yes
Forced : No

Menu
00:00:00.000 : :Chapter 01
00:00:52.800 : :Chapter 02
00:01:44.760 : :Chapter 03
00:09:38.240 : :Chapter 04
00:24:17.120 : :Chapter 05
00:32:07.040 : :Chapter 06
00:34:22.840 : :Chapter 07
00:42:23.880 : :Chapter 08
00:45:27.800 : :Chapter 09
00:48:40.560 : :Chapter 10
01:03:12.640 : :Chapter 11
01:20:23.680 : :Chapter 12
01:27:38.920 : :Chapter 13
01:40:02.680 : :Chapter 14
01:44:06.000 : :Chapter 15
01:53:17.920 : :Chapter 16
01:57:19.400 : :Chapter 17
01:57:40.080 : :Chapter 18





1 个附件 售价 大小 下载 时间

Break.Free.Two.People.Two.Years.One.Dream.2019.1080p.BluRay.x264-PussyFoot.torrent 0 金币 44.80K 245 次 5天前

#1楼
发帖时间:2019-12-04 00:14:58   |   回复数:1
911degrees
隐世仙人♂
非常感谢,谢谢分享
4天前 #2楼
游客组