339653326
小有名气

[2019] [欧美] [恐怖] [有水印] [网盘下载][哭泣女人的诅咒][韩版][HD-MP4/3.3G][英语中字][HECV-1080P]

-->



导演: 迈克尔·查维斯

编剧: 米琪·多特里 / 托拜厄斯·伊康尼斯

主演: 琳达·卡德里尼 / 帕翠西娅·维拉奎兹 / 雷蒙德·克鲁斯 / 玛德琳·麦格劳 / 西恩·帕特里克·汤玛斯 / 伊蕾娜·肯 / 里卡多·马姆多 / 安德鲁·T·李 / 玛丽索尔·拉米雷斯 / 约翰·马歇尔·琼斯 / 杰妮-琳恩·金辰

类型: 悬疑 / 惊悚 / 恐怖

制片国家/地区: 美国

语言: 英语

上映日期: 2019-04-19(美国)

片长: 93分钟

又名: 哭泣的女诡(港) / 哭泣的女人(台) / 泣妇的诅咒(豆友译名) / 泣妇诅咒 / 孩子们 / The Children / The Curse of the Weeping Woman

IMDb链接: tt4913966


剧情简介:

  新线恐怖片[孩子们]更名为[哭泣的女人的诅咒](The Curse of La Llorona,暂译),温子仁担任制片,其公司Atomic Monsters担任制作。导演迈克尔·查维斯,主演琳达·卡德里尼。墨西哥传说中有一个“哭泣的女人”的故事, 一个丢了自己孩子的女人开始掠夺其它人家的孩子。片中的单身母亲在调查儿童失踪案时发现这个“哭泣的女人”似乎就在她的身边。


General

Complete name                            : G:\115DOWNS\The.Curse.of.La.Llorona.2019.1080p.KORSUB.HDRip.x264.AAC2.0-STUTTERSHIT\韩版x265.HDRip1080P.mp4

Format                                   : MPEG-4

Format profile                           : Base Media

Codec ID                                 : isom (isom/iso2/mp41)

File size                                : 3.30 GiB

Duration                                 : 1 h 32 min

Overall bit rate                         : 5 087 kb/s

Writing application                      : Lavf58.20.100

Cover                                    : Yes


Video

ID                                       : 1

Format                                   : HEVC

Format/Info                              : High Efficiency Video Coding

Format profile                           : [email protected]@Main

Codec ID                                 : hev1

Codec ID/Info                            : High Efficiency Video Coding

Duration                                 : 1 h 32 min

Bit rate                                 : 4 925 kb/s

Width                                    : 1 920 pixels

Height                                   : 1 080 pixels

Display aspect ratio                     : 16:9

Frame rate mode                          : Constant

Frame rate                               : 25.000 FPS

Color space                              : YUV

Chroma subsampling                       : 4:2:0

Bit depth                                : 8 bits

Bits/(Pixel*Frame)                       : 0.095

Stream size                              : 3.20 GiB (97%)

Menus                                    : 3

Codec configuration box                  : hvcC


Audio

ID                                       : 2

Format                                   : AAC LC

Format/Info                              : Advanced Audio Codec Low Complexity

Codec ID                                 : mp4a-40-2

Duration                                 : 1 h 32 min

Bit rate mode                            : Constant

Bit rate                                 : 158 kb/s

Channel(s)                               : 2 channels

Channel layout                           : L R

Sampling rate                            : 48.0 kHz

Frame rate                               : 46.875 FPS (1024 SPF)

Compression mode                         : Lossy

Stream size                              : 105 MiB (3%)

Default                                  : Yes

Alternate group                          : 1

Menus                                    : 3


Menu

ID                                       : 3

Codec ID                                 : text

Duration                                 : 1 h 32 min

Language                                 : English

Menu For                                 : 1,2


截图:

   

字幕来源:

  • 制  作  人:中文字幕:MeGustaVerano.C.X.

  • 校  订  人:MeGustaVerano.C.X

http://www.zimuku.la/detail/119144.html


百度网盘下载


链接:https://pan.baidu.com/s/1OvL7LT_MjAxioqt5phjxOw 

提取码:hzhl 

复制这段内容后打开百度网盘手机App,操作更方便哦


做的不好 请指正 才刚学 - -

#1楼
发帖时间:2019-06-11 02:20:34   |   回复数:6
lj8105
武林高手
谢谢分享
4月前 #2楼
911degrees
隐世仙人♂
非常感谢,谢谢分享
4月前 #3楼
darkjesus
一派掌门
谢谢楼主
4月前 #4楼
ak147
一代宗师
感谢大大分享
4月前 #5楼
ALLEN820213
隐世仙人♂
感谢楼主分享!!!
4月前 #6楼
about456
一代宗师
多谢搂主分享!
4月前 #7楼
游客组