℡海文↘。
小有名气

[2018] [韩国] [剧情] [全集] [BT][Netflix]死之咏赞/死的赞美/Hymn of Death.2018.Completed.WEBRip.Netflix.1080p.h264-JH

-->

片名: 死之詠讚 / 死的赞美 / 사의 찬미 / Hymn of Death

导演: 朴秀真

编剧: 曹秀真

主演: 李钟硕 / 申惠善 / 金明秀 / 朴宣林 / 金元海 / 

类型: 剧情 / 爱情 / 传记

国家/地区: 韩国

播放平台:Netflix

语言:韩语

字幕:繁中 / 简中 / 英 / 法 / 西

集数:3集(完结)

大小:4.69GB

简介:《死之咏赞》改编自1991年上映的同名韩国电影,是一部以朝鲜首位女高音尹心惪与她的爱人天才剧作家金友镇跳入玄海滩的故事为背景创作的作品,李钟硕将在剧中饰演天才剧作家金祐镇。


Hymn of Death.2018.E01.WEBRip.Netflix.1080p.h264-JH

Video

ID                             : 1

Format                         : AVC

Format/Info                    : Advanced Video Codec

Format profile                 : [email protected]

Format settings                : CABAC / 3 Ref Frames

Format settings, CABAC         : Yes

Format settings, ReFrames      : 3 frames

Width                          : 1 920 pixels

Height                         : 1 080 pixels

Display aspect ratio           : 16:9

Frame rate mode                : Constant

Frame rate                     : 23.976 (24000/1001) FPS

Color space                    : YUV

Chroma subsampling             : 4:2:0

Bit depth                      : 8 bits

Scan type                      : Progressive

Bits/(Pixel*Frame)             : 0.070

Stream size                    : 1.40 GiB (97%)

Default                        : Yes

Forced                         : No


Audio

ID                             : 2

Format                         : AAC

Format/Info                    : Advanced Audio Codec

Format profile                 : HE-AAC / LC

Format settings                : Explicit

Codec ID                       : A_AAC-2

Duration                       : 57 min 53 s

Bit rate                       : 96.0 kb/s

Channel(s)                     : 2 channels

Channel positions              : Front: L R

Sampling rate                  : 48.0 kHz / 24.0 kHz

Frame rate                     : 23.438 FPS (1024 SPF)

Compression mode               : Lossy

Delay relative to video        : -41 ms

Stream size                    : 39.8 MiB (3%)

Language                       : Korean

Default                        : Yes

Forced                         : No


Text #1

ID                             : 3

Format                         : UTF-8

Codec ID                       : S_TEXT/UTF8

Codec ID/Info                  : UTF-8 Plain Text

Duration                       : 1 h 2 min

Bit rate                       : 30 b/s

Count of elements              : 543

Stream size                    : 13.9 KiB (0%)

Language                       : Chinese

Default                        : Yes

Forced                         : No


Text #2

ID                             : 4

Format                         : UTF-8

Codec ID                       : S_TEXT/UTF8

Codec ID/Info                  : UTF-8 Plain Text

Duration                       : 1 h 2 min

Bit rate                       : 30 b/s

Count of elements              : 547

Stream size                    : 13.8 KiB (0%)

Language                       : Chinese

Default                        : No

Forced                         : No


Text #3

ID                             : 5

Format                         : UTF-8

Codec ID                       : S_TEXT/UTF8

Codec ID/Info                  : UTF-8 Plain Text

Duration                       : 58 min 49 s

Bit rate                       : 1 b/s

Count of elements              : 31

Stream size                    : 810 Bytes (0%)

Language                       : Korean

Default                        : No

Forced                         : No


Text #4

ID                             : 6

Format                         : UTF-8

Codec ID                       : S_TEXT/UTF8

Codec ID/Info                  : UTF-8 Plain Text

Duration                       : 1 h 2 min

Bit rate                       : 32 b/s

Count of elements              : 550

Stream size                    : 14.9 KiB (0%)

Language                       : Spanish

Default                        : No

Forced                         : No


Text #5

ID                             : 7

Format                         : UTF-8

Codec ID                       : S_TEXT/UTF8

Codec ID/Info                  : UTF-8 Plain Text

Duration                       : 1 h 2 min

Bit rate                       : 37 b/s

Count of elements              : 551

Stream size                    : 17.1 KiB (0%)

Language                       : French

Default                        : No

Forced                         : No


Text #6

ID                             : 8

Format                         : UTF-8

Codec ID                       : S_TEXT/UTF8

Codec ID/Info                  : UTF-8 Plain Text

Duration                       : 1 h 1 min

Bit rate                       : 35 b/s

Count of elements              : 550

Stream size                    : 15.8 KiB (0%)

Language                       : English

Default                        : No

Forced                         : No

2~3集数据差不多,就不放那么多了。

第一集字幕封装错误(哈哈哈~。~),请务必下载第一集单独的字幕,其余封装没有问题。

字幕單獨下載不了的,請下載重新封裝版。

自己做种分享之资源,我不能保证24H在线上,所以请下载完毕后,尽量保持线上久一点,分享给其他人。谢谢啦~


3 个附件 售价 大小 下载 时间

Hymn of Death.2018.Completed.WEBRip.Netflix.1080p.h264-JH.torrent 0 金币 13.14K 2478 次 4月前

E01字幕.zip 0 金币 84.68K 1330 次 4月前

Hymn of Death.2018.E01.Repack.WEBRip.Netflix.1080p.h264-JH.mkv.torrent 0 金币 15.59K 1232 次 4月前

#1楼
发帖时间:2019-05-06 19:48:12   |   回复数:3
liyouchai
隐世仙人♂
谢谢楼主分享资源
4月前 #2楼
武林高手
不能下载第一集单独的字幕......
4月前 #3楼
℡海文↘。
小有名气
引用 [email protected]

不能下载第一集单独的字幕......

你可以下載重新封裝版。

但是我這邊測試是可以下載的阿。。

4月前 #4楼
游客组