呆呆狐狸
超级版主

[2018] [英国] [喜剧] [打包] [BT下载][一键解忧/挂断焦虑/Hang Ups 第一季][全06集打包][英语英字][MKV][720P/1080P][片源]

-->

◎译  名 一键解忧/挂断焦虑

◎片  名 Hang Ups

◎年  代 2018

◎产  地 英国

◎类  别 喜剧

◎语  言 英语

◎BT之家整理 http://8btbtt.com/ 

◎集  数 6

◎片  长 30分钟

◎主  演 史蒂芬·曼甘  Stephen Mangan

      大卫·田纳特 David Tennant

      查尔斯·丹斯 Charles Dance

      理查德·E·格兰特 Richard E. Grant

      杰西卡·海因斯 Jessica Hynes

      凯瑟琳·帕金森 Katherine Parkinson

      卡尔·特奥巴德 Karl Theobald

      阿舍尔·阿里 Arsher Ali

      西莉亚·伊姆里 Celia Imrie

      保罗·亨雷德 Paul Henreid


◎简  介


  曾获艾美提名﹑Lisa Kudrow主演的Showtime喜剧《#网疗记# Web Therapy》被英国电视台Channel 4改篇成6集半小时喜剧《挂断焦虑 Hang Ups》,并由#Stephen Mangan#主演。Stephen Mangan会与Robert Delamere共同执笔,剧中讲述一个心理治疗师,开始通过网络摄像头,在网上给患者进行谈话治疗。


Video
ID : 1
Format : AVC
Format/Info : Advanced Video Codec
Format profile : [email protected]
Format settings : CABAC / 4 Ref Frames
Format settings, CABAC : Yes
Format settings, ReFrames : 4 frames
Codec ID : V_MPEG4/ISO/AVC
Duration : 23 min 50 s
Bit rate : 5 807 kb/s
Width : 1 920 pixels
Height : 1 080 pixels
Display aspect ratio : 16:9
Frame rate mode : Constant
Frame rate : 25.000 FPS
Color space : YUV
Chroma subsampling : 4:2:0
Bit depth : 8 bits
Scan type : Progressive
Bits/(Pixel*Frame) : 0.112
Stream size : 990 MiB (99%)
Default : Yes
Forced : No

Audio
ID : 2
Format : AAC LC SBR
Format/Info : Advanced Audio Codec Low Complexity with Spectral Band Replication
Commercial name : HE-AAC
Format settings : Explicit
Codec ID : A_AAC-2
Duration : 23 min 50 s
Bit rate : 64.0 kb/s
Channel(s) : 2 channels
Channel layout : L R
Sampling rate : 48.0 kHz
Frame rate : 23.438 FPS (2048 SPF)
Compression mode : Lossy
Stream size : 10.9 MiB (1%)
Language : English
Default : Yes
Forced : No

Text
ID : 3
Format : UTF-8
Codec ID : S_TEXT/UTF8
Codec ID/Info : UTF-8 Plain Text
Duration : 23 min 17 s
Bit rate : 159 b/s
Count of elements : 707
Stream size : 27.3 KiB (0%)
Title : English (SDH)
Language : English
Default : No
Forced : No



2 个附件 售价 大小 下载 时间

Hang.Ups.S01.720p.HULU.WEBRip.AAC2.0.x264-monkee[92btbtt.com].torrent 0 金币 27.60K 350 次 6月前

Hang.Ups.S01.1080p.HULU.WEBRip.AAC2.0.x264-monkee[92btbtt.com].torrent 0 金币 29.86K 371 次 6月前

#1楼
发帖时间:2019-03-11 19:52:07   |   回复数:1
911degrees
隐世仙人♂
非常感谢,谢谢分享
6月前 #2楼
游客组