呆呆狐狸
超级版主

[2018] [美国] [喜剧] [打包] [BT下载][烂人劳德缪克/Loudermilk 第二季][全10集打包][英语英字][MKV][720P/1080P][片源]

-->

◎译  名 烂人劳德缪克

◎片  名 Loudermilk

◎年  代 2018

◎产  地 美国

◎类  别 喜剧

◎BT之家整理 http://8btbtt.com/ 

◎集  数 10

◎主  演 朗·里维斯顿 Ron Livingston


◎简  介


  故事描述正在康复的酒鬼兼药物滥用者Sam Loudermilk(Ron Livingston)对身边的一切都不满意,态度恶劣、生硬。他口无遮拦,错了也不肯承认,因此让所有人都感到愤怒。对Sam来说,每个陌生人都是「尚未遇到的敌人」。尽管他现在不再酗酒,但他的生活总是前进一步然后退后十二步。与糟糕的生活状况相比,戒除酒瘾和药瘾算是非常容易的事情了。Will Sasso、Laura Mennel、Anja Savcic、Toby Levins、Mark Brandon和Timothy Webber参与演出。


Video
ID : 1
Format : AVC
Format/Info : Advanced Video Codec
Format profile : [email protected]
Format settings : CABAC / 4 Ref Frames
Format settings, CABAC : Yes
Format settings, ReFrames : 4 frames
Codec ID : V_MPEG4/ISO/AVC
Duration : 29 min 55 s
Bit rate mode : Constant
Bit rate : 9 385 kb/s
Nominal bit rate : 10 000 kb/s
Width : 1 920 pixels
Height : 1 080 pixels
Display aspect ratio : 16:9
Frame rate mode : Constant
Frame rate : 23.976 (24000/1001) FPS
Color space : YUV
Chroma subsampling : 4:2:0
Bit depth : 8 bits
Scan type : Progressive
Bits/(Pixel*Frame) : 0.189
Stream size : 1.96 GiB (94%)
Default : Yes
Forced : No
Color range : Limited
Color primaries : BT.709
Transfer characteristics : BT.709
Matrix coefficients : BT.709

Audio
ID : 2
Format : E-AC-3
Format/Info : Enhanced AC-3
Commercial name : Dolby Digital Plus
Codec ID : A_EAC3
Duration : 29 min 55 s
Bit rate mode : Constant
Bit rate : 640 kb/s
Channel(s) : 6 channels
Channel layout : L R C LFE Ls Rs
Sampling rate : 48.0 kHz
Frame rate : 31.250 FPS (1536 SPF)
Compression mode : Lossy
Stream size : 137 MiB (6%)
Language : English
Service kind : Complete Main
Default : Yes
Forced : No

Text
ID : 3
Format : UTF-8
Codec ID : S_TEXT/UTF8
Codec ID/Info : UTF-8 Plain Text
Duration : 29 min 45 s
Bit rate : 107 b/s
Count of elements : 695
Stream size : 23.5 KiB (0%)
Title : SDH
Language : English
Default : No
Forced : No



2 个附件 售价 大小 下载 时间

Loudermilk.S02.1080p.AMZN.WEBRip.DDP5.1.x264-NTb[92btbtt.com].torrent 0 金币 52.71K 266 次 6月前

Loudermilk.S02.720p.AMZN.WEBRip.DDP5.1.x264-NTb[92btbtt.com].torrent 0 金币 53.77K 231 次 6月前

#1楼
发帖时间:2019-03-07 18:11:31   |   回复数:2
911degrees
隐世仙人♂
非常感谢,谢谢分享
6月前 #2楼
呆呆狐狸
超级版主
追加720P
6月前 #3楼
游客组