呆呆狐狸
超级版主

[2015] [德国] [动作] [打包] [BT下载][德国八三年/德国83年 Deutschland 83 第一季][全08集][外挂中字][BD-MKV][1080P][片源]

-->


◎译  名 德国八三年 / 德国83年

◎片  名 Deutschland 83

◎年  代 2015

◎产  地 德国

◎类  别 剧情

◎语  言 德语

◎上映日期 2015-06-17(美国)

◎IMDb评分 8.1/10 from 9135 users

◎IMDb链接 http://www.imdb.com/title/tt4445154

◎豆瓣评分 8.0/10 from 2115 users

◎豆瓣链接 https://movie.douban.com/subject/26375073/

◎BT之家整理 http://8btbtt.com/ 

◎集  数 8

◎片  长 45分钟

◎导  演 Edward Berger / Samira Radsi

◎编  剧 Anna Winger

◎主  演 亚历山大·贝叶尔 Alexander Beyer

      桑雅·杰哈特 Sonja Gerhardt

      西尔维斯特·格罗斯 Sylvester Groth

      乌尔里希·诺登 Ulrich Noethen

      玛丽亚· 施拉德 Maria Schrader

      路德维格.特内普特 Ludwig Trepte

      丽莎·托马舍夫斯基 Lisa Tomaschewsky

      尤纳斯·内 Jonas Nay




◎简  介  


  德国83年是一部扣人心弦的电视剧,其故事反映的是80年代的德国政治斗争与真实现代战争之间的故事。该剧讲述的是一个土生土长在东德的24岁年轻人马丁·劳赫,被强制派往西德做民主德国国家安全局的秘密间谍。隐姓埋名于西德陆军之中,他必须搜集所有关于北约军事战略的机密。万事开头难,进展并非像他想象那样顺利,他所遇到的每一个人都深藏不可告人的秘密……



Video
ID : 1
Format : AVC
Format/Info : Advanced Video Codec
Format profile : [email protected]
Format settings : CABAC / 4 Ref Frames
Format settings, CABAC : Yes
Format settings, ReFrames : 4 frames
Codec ID : V_MPEG4/ISO/AVC
Duration : 48 min 45 s
Bit rate : 16.2 Mb/s
Width : 1 920 pixels
Height : 1 080 pixels
Display aspect ratio : 16:9
Frame rate mode : Constant
Frame rate : 25.000 FPS
Color space : YUV
Chroma subsampling : 4:2:0
Bit depth : 8 bits
Scan type : Progressive
Bits/(Pixel*Frame) : 0.313
Stream size : 5.53 GiB (91%)
Writing library : x264 core 146 r2538kMod 121396c
Encoding settings : cabac=1 / ref=4 / deblock=1:-3:-3 / analyse=0x3:0x133 / me=umh / subme=11 / psy=1 / fade_compensate=0.00 / psy_rd=1.00:0.00 / mixed_ref=1 / me_range=32 / chroma_me=1 / trellis=2 / 8x8dct=1 / cqm=0 / deadzone=21,11 / fast_pskip=1 / chroma_qp_offset=-2 / threads=48 / lookahead_threads=8 / sliced_threads=0 / nr=0 / decimate=1 / interlaced=0 / bluray_compat=0 / constrained_intra=0 / fgo=0 / bframes=10 / b_pyramid=2 / b_adapt=2 / b_bias=0 / direct=3 / weightb=1 / open_gop=0 / weightp=2 / keyint=250 / keyint_min=25 / scenecut=40 / intra_refresh=0 / rc=crf / mbtree=0 / crf=16.0000 / qcomp=0.65 / qpmin=0 / qpmax=69 / qpstep=4 / ip_ratio=1.25 / pb_ratio=1.20 / aq=1:0.60
Language : German
Default : Yes
Forced : No

Audio
ID : 2
Format : DTS
Format/Info : Digital Theater Systems
Codec ID : A_DTS
Duration : 48 min 45 s
Bit rate mode : Constant
Bit rate : 1 509 kb/s
Channel(s) : 6 channels
Channel layout : C L R Ls Rs LFE
Sampling rate : 48.0 kHz
Frame rate : 93.750 FPS (512 SPF)
Bit depth : 24 bits
Compression mode : Lossy
Stream size : 526 MiB (8%)
Language : German
Default : Yes
Forced : No

Text #1
ID : 3
Format : ASS
Codec ID : S_TEXT/ASS
Codec ID/Info : Advanced Sub Station Alpha
Duration : 44 min 13 s
Bit rate : 108 b/s
Count of elements : 511
Compression mode : Lossless
Stream size : 35.0 KiB (0%)
Language : Russian
Default : No
Forced : No

Text #2
ID : 4
Format : UTF-8
Codec ID : S_TEXT/UTF8
Codec ID/Info : UTF-8 Plain Text
Duration : 44 min 13 s
Bit rate : 74 b/s
Count of elements : 511
Stream size : 24.1 KiB (0%)
Language : Russian
Default : No
Forced : No

Text #3
ID : 5
Format : ASS
Codec ID : S_TEXT/ASS
Codec ID/Info : Advanced Sub Station Alpha
Duration : 44 min 8 s
Bit rate : 81 b/s
Count of elements : 508
Compression mode : Lossless
Stream size : 26.5 KiB (0%)
Language : English
Default : No
Forced : No

Text #4
ID : 6
Format : UTF-8
Codec ID : S_TEXT/UTF8
Codec ID/Info : UTF-8 Plain Text
Duration : 44 min 8 s
Bit rate : 48 b/s
Count of elements : 508
Stream size : 15.7 KiB (0%)
Language : English
Default : No
Forced : No

Menu
00:00:00.000 : en:Chapter 01
00:00:56.000 : en:Chapter 02
00:03:12.040 : en:Chapter 03
00:19:35.320 : en:Chapter 04
00:32:04.240 : en:Chapter 05



2 个附件 售价 大小 下载 时间

Deutschland.83.S01.GERMAN.1080p.BluRay.x264-SbR[92btbtt.com].torrent 0 金币 115.22K 1568 次 6月前

字幕Deutschland.83.S01.GERMAN.1080p.BluRay.x264-SbR.zip 0 金币 250.54K 791 次 6月前

#1楼
发帖时间:2019-03-05 20:37:46   |   回复数:2
911degrees
隐世仙人♂
非常感谢,谢谢分享
6月前 #2楼
呆呆狐狸
超级版主
追加字幕
6月前 #3楼
游客组