呆呆狐狸
超级版主

[2015] [法国] [喜剧] [打包] [BT下载][百分之十/Dix pour cent 第一季][全06集打包][法语英字][BD-MKV][1080P][片源]

-->


◎译  名 百分之十 / Call My Agent!

◎片  名 Dix pour cent

◎年  代 2015

◎产  地 法国

◎类  别 喜剧

◎语  言 法语

◎上映日期 2015-10-14(法国)

◎IMDb评分 8.2/10 from 2639 users

◎IMDb链接 http://www.imdb.com/title/tt4277922

◎豆瓣评分 8.9/10 from 597 users

◎豆瓣链接 https://movie.douban.com/subject/26638338/

◎BT之家整理 http://8btbtt.com/ 

◎片  长 55分钟

◎导  演 塞德里克·克拉皮斯 Cédric Klapisch / Lola Doillon / Antoine Garceau

◎编  剧 Julien Messemackers / Sabrina B. KARINE

◎主  演 卡米尔·科坦 Camille Cottin

      蒂博·德·蒙塔朗贝尔 Thibault de Montalembert

      奥黛丽·弗洛特 Audrey Fleurot

      劳尔·卡拉米 Laure Calamy

      西西·迪·法兰丝 Cécile De France

      弗兰西丝·法比安 Françoise Fabian

      丽娜·雷诺 Line Renaud

      纳塔莉·贝伊 Nathalie Baye

      劳拉·斯梅特 Laura Smet

      吉尔·勒卢什 Gilles Lellouche

      尼古拉斯·莫瑞 Nicolas Maury




◎简  介  


  这是一部法国肥皂剧,主要讲述了演艺圈中各种搞笑的故事。第一季播出后大受欢迎,17年又推出了第二季,其中的百合线也颇受关注,第二季开始对演艺圈的女性话题进行讨论,演绎了外表光鲜下的明星作为平凡人生活化的一面。


Video
ID : 1
Format : AVC
Format/Info : Advanced Video Codec
Format profile : [email protected]
Format settings : CABAC / 4 Ref Frames
Format settings, CABAC : Yes
Format settings, ReFrames : 4 frames
Codec ID : V_MPEG4/ISO/AVC
Duration : 51 min 53 s
Bit rate : 15.7 Mb/s
Width : 1 920 pixels
Height : 1 080 pixels
Display aspect ratio : 16:9
Frame rate mode : Constant
Frame rate : 25.000 FPS
Color space : YUV
Chroma subsampling : 4:2:0
Bit depth : 8 bits
Scan type : Progressive
Bits/(Pixel*Frame) : 0.302
Stream size : 5.68 GiB (91%)
Writing library : x264 core 146 r2538kMod 121396c
Encoding settings : cabac=1 / ref=4 / deblock=1:-3:-3 / analyse=0x3:0x133 / me=umh / subme=11 / psy=1 / fade_compensate=0.00 / psy_rd=1.00:0.00 / mixed_ref=1 / me_range=32 / chroma_me=1 / trellis=2 / 8x8dct=1 / cqm=0 / deadzone=21,11 / fast_pskip=1 / chroma_qp_offset=-2 / threads=48 / lookahead_threads=8 / sliced_threads=0 / nr=0 / decimate=1 / interlaced=0 / bluray_compat=0 / constrained_intra=0 / fgo=0 / bframes=10 / b_pyramid=2 / b_adapt=2 / b_bias=0 / direct=3 / weightb=1 / open_gop=0 / weightp=2 / keyint=250 / keyint_min=25 / scenecut=40 / intra_refresh=0 / rc=crf / mbtree=0 / crf=15.0000 / qcomp=0.65 / qpmin=0 / qpmax=69 / qpstep=4 / ip_ratio=1.25 / pb_ratio=1.20 / aq=1:0.60
Language : French
Default : Yes
Forced : No

Audio
ID : 2
Format : DTS
Format/Info : Digital Theater Systems
Codec ID : A_DTS
Duration : 51 min 53 s
Bit rate mode : Constant
Bit rate : 1 509 kb/s
Channel(s) : 6 channels
Channel layout : C L R Ls Rs LFE
Sampling rate : 48.0 kHz
Frame rate : 93.750 FPS (512 SPF)
Bit depth : 24 bits
Compression mode : Lossy
Stream size : 560 MiB (9%)
Language : French
Default : Yes
Forced : No

Text #1
ID : 3
Format : ASS
Codec ID : S_TEXT/ASS
Codec ID/Info : Advanced Sub Station Alpha
Duration : 51 min 0 s
Bit rate : 115 b/s
Count of elements : 822
Compression mode : Lossless
Stream size : 43.2 KiB (0%)
Title : ASS
Language : English
Default : No
Forced : No

Text #2
ID : 4
Format : UTF-8
Codec ID : S_TEXT/UTF8
Codec ID/Info : UTF-8 Plain Text
Duration : 51 min 0 s
Bit rate : 68 b/s
Count of elements : 822
Stream size : 25.5 KiB (0%)
Language : English
Default : No
Forced : No

Text #3
ID : 5
Format : UTF-8
Codec ID : S_TEXT/UTF8
Codec ID/Info : UTF-8 Plain Text
Duration : 51 min 0 s
Bit rate : 75 b/s
Count of elements : 922
Stream size : 28.0 KiB (0%)
Language : Danish
Default : No
Forced : No

Text #4
ID : 6
Format : UTF-8
Codec ID : S_TEXT/UTF8
Codec ID/Info : UTF-8 Plain Text
Duration : 51 min 0 s
Bit rate : 72 b/s
Count of elements : 795
Stream size : 27.0 KiB (0%)
Language : Dutch
Default : No
Forced : No

Text #5
ID : 7
Format : UTF-8
Codec ID : S_TEXT/UTF8
Codec ID/Info : UTF-8 Plain Text
Duration : 50 min 58 s
Bit rate : 72 b/s
Count of elements : 864
Stream size : 27.1 KiB (0%)
Language : Finnish
Default : No
Forced : No

Text #6
ID : 8
Format : ASS
Codec ID : S_TEXT/ASS
Codec ID/Info : Advanced Sub Station Alpha
Duration : 51 min 50 s
Bit rate : 271 b/s
Count of elements : 1312
Compression mode : Lossless
Stream size : 103 KiB (0%)
Title : ASS
Language : French
Default : No
Forced : No

Text #7
ID : 9
Format : UTF-8
Codec ID : S_TEXT/UTF8
Codec ID/Info : UTF-8 Plain Text
Duration : 50 min 57 s
Bit rate : 95 b/s
Count of elements : 925
Stream size : 35.6 KiB (0%)
Language : French
Default : No
Forced : No

Text #8
ID : 10
Format : UTF-8
Codec ID : S_TEXT/UTF8
Codec ID/Info : UTF-8 Plain Text
Duration : 51 min 0 s
Bit rate : 114 b/s
Count of elements : 791
Stream size : 42.9 KiB (0%)
Language : Greek
Default : No
Forced : No

Text #9
ID : 11
Format : UTF-8
Codec ID : S_TEXT/UTF8
Codec ID/Info : UTF-8 Plain Text
Duration : 51 min 0 s
Bit rate : 96 b/s
Count of elements : 807
Stream size : 35.9 KiB (0%)
Language : Hebrew
Default : No
Forced : No

Text #10
ID : 12
Format : UTF-8
Codec ID : S_TEXT/UTF8
Codec ID/Info : UTF-8 Plain Text
Duration : 51 min 1 s
Bit rate : 68 b/s
Count of elements : 808
Stream size : 25.4 KiB (0%)
Language : Norwegian
Default : No
Forced : No

Text #11
ID : 13
Format : UTF-8
Codec ID : S_TEXT/UTF8
Codec ID/Info : UTF-8 Plain Text
Duration : 50 min 58 s
Bit rate : 65 b/s
Count of elements : 925
Stream size : 24.4 KiB (0%)
Language : Polish
Default : No
Forced : No

Text #12
ID : 14
Format : UTF-8
Codec ID : S_TEXT/UTF8
Codec ID/Info : UTF-8 Plain Text
Duration : 50 min 55 s
Bit rate : 73 b/s
Count of elements : 779
Stream size : 27.3 KiB (0%)
Language : Romanian
Default : No
Forced : No

Text #13
ID : 15
Format : UTF-8
Codec ID : S_TEXT/UTF8
Codec ID/Info : UTF-8 Plain Text
Duration : 51 min 0 s
Bit rate : 67 b/s
Count of elements : 923
Stream size : 25.1 KiB (0%)
Language : Swedish
Default : No
Forced : No

Text #14
ID : 16
Format : UTF-8
Codec ID : S_TEXT/UTF8
Codec ID/Info : UTF-8 Plain Text
Duration : 51 min 0 s
Bit rate : 157 b/s
Count of elements : 827
Stream size : 58.7 KiB (0%)
Language : Thai
Default : No
Forced : No

Text #15
ID : 17
Format : UTF-8
Codec ID : S_TEXT/UTF8
Codec ID/Info : UTF-8 Plain Text
Duration : 51 min 0 s
Bit rate : 68 b/s
Count of elements : 823
Stream size : 25.4 KiB (0%)
Language : Turkish
Default : No
Forced : No

Menu
00:00:00.000 : en:Chapter 01
00:02:30.720 : en:Chapter 02
00:12:59.920 : en:Chapter 03
00:23:56.320 : en:Chapter 04
00:34:20.440 : en:Chapter 05
00:45:29.920 : en:Chapter 06



1 个附件 售价 大小 下载 时间

Dix.pour.cent.S01.FRENCH.1080p.BluRay.x264-SbR[92btbtt.com].torrent 0 金币 83.74K 1617 次 6月前

#1楼
发帖时间:2019-03-05 17:58:03   |   回复数:2
911degrees
隐世仙人♂
非常感谢,谢谢分享
6月前 #2楼
金枪西门庆
一派掌门
感谢大大分享,支持。
6月前 #3楼
游客组