呆呆狐狸
超级版主

[2007] [美国] [喜剧] [打包] [BT下载][他乡来客/John From Cincinnati 第一季][全10集打包][英语无字][MKV][1080P][片源]

-->



◎译  名 他乡来客

◎片  名 John From Cincinnati

◎年  代 2007

◎产  地 美国

◎类  别 剧情 / 喜剧

◎语  言 英语

◎上映日期 2007-06-10

◎IMDb评分 7.2/10 from 4473 users

◎IMDb链接 http://www.imdb.com/title/tt0814164

◎豆瓣评分 6.9/10 from 47 users

◎豆瓣链接 https://movie.douban.com/subject/2122900/

◎BT之家整理 http://8btbtt.com/ 

◎集  数 10

◎片  长 55分钟

◎导  演 Mark Tinker

◎编  剧 David Milch / Kem Nunn / N. Beattie Rapaport

◎主  演 Brian Van Holt

      Rebecca De Mornay

      Greyson Fletcher

      Bruce Greenwood

      Austin Nichols

      Willie Garson

      Luis Guzmán

      Keala Kennelly

      Ed O'Neill

      Luke Perry

      Matt Winston

      Emily Rose




◎简  介  


  《朽木》原创者的最新作品,讲述一个没落冲浪运动明星家庭被一位奇怪的不速之客激励的故事。

Yost一家三代人都住在加利福尼亚的一个沿海小镇,Yost家族拥有辉煌的过去,在帝国沙滩曾享有很高的声望。但多年的厄运使这个一度优秀的家庭走上了下坡路。就在这个家庭最没落的时候,一个叫John的陌生人出现了,突然间Yost一家平淡无奇的生活奇迹般的开始有所好转。

Yost家族中最年轻的是13岁的Shaun,他继承了父亲Butchie和爷爷Mitch的冲浪运动天赋。Butchie和Mitch在全胜时期的时候都是冲浪运动员中的佼佼者,不过却由于毒瘾,性格孤僻而自甘堕落。只有Yost的祖母Cissy在为孙子的成功而努力,试图让Shaun在商业和运动上取得成功,以此补偿丈夫和儿子的挫折与失败。

在这个世界上,连简单的快乐都充斥着铜臭味。神秘人John的出现使得Yost一家的过去和现在,平凡和非凡,自然和超自然之间的界限变得模糊。他是谁?为什么要来到帝国沙滩?他有什么目的?


Video
ID : 1
Format : AVC
Format/Info : Advanced Video Codec
Format profile : High[email protected]
Format settings : CABAC / 4 Ref Frames
Format settings, CABAC : Yes
Format settings, ReFrames : 4 frames
Codec ID : V_MPEG4/ISO/AVC
Duration : 57 min 15 s
Bit rate : 13.3 Mb/s
Width : 1 920 pixels
Height : 1 080 pixels
Display aspect ratio : 16:9
Frame rate mode : Constant
Frame rate : 23.976 (24000/1001) FPS
Color space : YUV
Chroma subsampling : 4:2:0
Bit depth : 8 bits
Scan type : Progressive
Bits/(Pixel*Frame) : 0.268
Stream size : 5.32 GiB (95%)
Default : Yes
Forced : No
Color range : Limited
Color primaries : BT.709
Transfer characteristics : BT.709
Matrix coefficients : BT.709

Audio
ID : 2
Format : E-AC-3
Format/Info : Enhanced AC-3
Commercial name : Dolby Digital Plus
Codec ID : A_EAC3
Duration : 57 min 15 s
Bit rate mode : Constant
Bit rate : 640 kb/s
Channel(s) : 6 channels
Channel layout : L R C LFE Ls Rs
Sampling rate : 48.0 kHz
Frame rate : 31.250 FPS (1536 SPF)
Compression mode : Lossy
Stream size : 262 MiB (5%)
Language : English
Service kind : Complete Main
Default : Yes
Forced : No

Text
ID : 3
Format : UTF-8
Codec ID : S_TEXT/UTF8
Codec ID/Info : UTF-8 Plain Text
Duration : 56 min 5 s
Bit rate : 73 b/s
Count of elements : 832
Stream size : 30.1 KiB (0%)
Title : SDH
Language : English
Default : Yes
Forced : No




1 个附件 售价 大小 下载 时间

John.From.Cincinnati.S01.1080p.AMZN.WEBRip.DDP5.1.x264-pawel2006[92btbtt.com].torrent 0 金币 123.44K 364 次 7月前

#1楼
发帖时间:2019-02-18 13:25:08   |   回复数:1
911degrees
隐世仙人♂
非常感谢,谢谢分享
7月前 #2楼
游客组