呆呆狐狸
隐世仙人♂

[2018] [澳剧] [科幻] [打包] [BT下载][神秘法医/两面法医 Harrow 第一季][全10集打包][英语英字][MKV][720P/1080P][片源]

-->



◎译  名 神秘法医 / 两面法医

◎片  名 Harrow

◎年  代 2018

◎产  地 美国 / 澳大利亚

◎类  别 剧情

◎语  言 英语

◎上映日期 2018-03-09(澳大利亚)

◎IMDb评分 7.4/10 from 2102 users

◎IMDb链接 http://www.imdb.com/title/tt7242816

◎豆瓣评分 7.0/10 from 705 users

◎豆瓣链接 https://movie.douban.com/subject/27087648/

◎BT之家整理 http://8btbtt.com/ 

◎集  数 10

◎片  长 52分钟

◎导  演 Tony Krawitz / 丹尼尔·奈西姆 Daniel Nettheim / 彼得·萨蒙 Peter Salmon / 托尼·蒂尔斯 Tony Tilse / 凯特·丹尼斯 Kate Dennis / Catriona McKenzie

◎编  剧 斯蒂芬·M·欧文 Stephen M. Irwin / Leigh McGrath / 卢卡斯·泰勒 Lucas Taylor

◎主  演 艾恩·格拉法德 Ioan Gruffudd

      米拉·福尔克斯 Mirrah Foulkes

      瑞米·海依 Remy Hii

      安娜·丽丝·菲利普斯 Anna Lise Phillips

      艾拉·纽顿 Ella Newton

      乌利·拉图基孚 Uli Latukefu

      托尼·巴里 Tony Barry

      Darren Gilshenan

      Hunter Page-Lochard




◎简  介  


  澳大利亚剧集《Harrow》由Stephen M. Irwin和Leigh McGrath创作,讲述了一位不普通的司法病理医师Daniel Harrow医生(《不死法医 Forever》的男主Ioan Gruffudd饰)的故事。他聪明﹑不走寻常路,而且可能是一个谋杀犯?他蔑视权威但为受害人尽心尽力,让他解决了一个个奇案;他能让受害者开口说话,但为了寻求真相他不惜一切代价。而一个他过去的秘密威胁到了他的家人、事业和他本人时,Harrow需要尽他所能掩埋一个凶案的秘密。


Video
ID : 1
Format : AVC
Format/Info : Advanced Video Codec
Format profile : [email protected]
Format settings : CABAC / 4 Ref Frames
Format settings, CABAC : Yes
Format settings, ReFrames : 4 frames
Codec ID : V_MPEG4/ISO/AVC
Duration : 52 min 6 s
Bit rate mode : Constant
Bit rate : 10 000 kb/s
Width : 1 920 pixels
Height : 1 080 pixels
Display aspect ratio : 16:9
Frame rate mode : Constant
Frame rate : 25.000 FPS
Color space : YUV
Chroma subsampling : 4:2:0
Bit depth : 8 bits
Scan type : Progressive
Bits/(Pixel*Frame) : 0.193
Stream size : 3.47 GiB (94%)
Default : Yes
Forced : No
Color range : Limited
Color primaries : BT.709
Transfer characteristics : BT.709
Matrix coefficients : BT.709

Audio
ID : 2
Format : E-AC-3
Format/Info : Enhanced AC-3
Commercial name : Dolby Digital Plus
Codec ID : A_EAC3
Duration : 52 min 6 s
Bit rate mode : Constant
Bit rate : 640 kb/s
Channel(s) : 6 channels
Channel layout : L R C LFE Ls Rs
Sampling rate : 48.0 kHz
Frame rate : 31.250 FPS (1536 SPF)
Compression mode : Lossy
Stream size : 239 MiB (6%)
Language : English
Service kind : Complete Main
Default : Yes
Forced : No

Text #1
ID : 3
Format : UTF-8
Codec ID : S_TEXT/UTF8
Codec ID/Info : UTF-8 Plain Text
Duration : 51 min 35 s
Bit rate : 62 b/s
Count of elements : 853
Stream size : 23.5 KiB (0%)
Title : SDH
Language : English
Default : No
Forced : No

Text #2
ID : 4
Format : UTF-8
Codec ID : S_TEXT/UTF8
Codec ID/Info : UTF-8 Plain Text
Duration : 51 min 32 s
Bit rate : 51 b/s
Count of elements : 719
Stream size : 19.4 KiB (0%)
Language : French
Default : No
Forced : No




2 个附件 售价 大小 下载 时间

Harrow.S01.720p.AMZN.WEBRip.DDP5.1.x264-NTb[btbtt.me].torrent 0 金币 95.39K 1141 次 8月前

Harrow.S01.1080p.AMZN.WEBRip.DDP5.1.x264-NTb[btbtt.me].torrent 0 金币 91.71K 1050 次 8月前

#1楼
发帖时间:2019-02-15 00:11:39   |   回复数:2
911degrees
隐世仙人♂
非常感谢,谢谢分享
8月前 #2楼
feung18
武林高手
感謝大大無私的分享感恩喔辛苦了 ~~~~~
6月前 #3楼
游客组