呆呆狐狸
超级版主

[2018] [其他] [科幻] [打包] [BT下载][百分之三/3%/3 Percent 第二季][全10集打包][英语中字][MKV][720P/1080P][片源]

-->

注:Netflix版片源 内含官方中字  自带字幕较多自行切换 更多字幕详见下面参数列表



◎译  名 3% 第二季 / 3 Percent / 百分之三 第二季

◎片  名 3% Season 2

◎年  代 2018

◎产  地 美国 / 巴西

◎类  别 剧情 / 动作 / 科幻 / 惊悚

◎语  言 葡萄牙语

◎上映日期 2018-04-27(巴西)

◎IMDb评分 7.4/10 from 225 users

◎IMDb链接 http://www.imdb.com/title/tt6324336

◎豆瓣评分 7.5/10 from 86 users

◎豆瓣链接 https://movie.douban.com/subject/27601330/

◎集  数 10

◎主  演 Bianca Comparato

      Samuel de Assis

      Bruno Fagundes

      马利亚·弗洛 Maria Flor

      Laila Garin

      Michel Gomes

      Silvio Guindane

      Thais Lago

      Vaneza Oliveira

      Cynthia Senek

      Rodolfo Valente

      Fernanda Vasconcellos




◎简  介  


  故事描述人们一生只有一次机会获得更好的生活和地位,但每个人都必须经历残酷(而且并不公平)的选拔过程——只有百分之三的候选人最终能获得成功。这些幸运儿在社会阶层中高人一等,而其他人将面对缺电、缺水、缺食物的可怕生活。制片人表示,人生活在社会中总是要经历各种各样的「选择」(选拔)过程——无论你是否乐意——该剧就是要解读「选择」(选拔)背后的动态关系。



Video
ID : 1
Format : AVC
Format/Info : Advanced Video Codec
Format profile : [email protected]
Format settings : CABAC / 3 Ref Frames
Format settings, CABAC : Yes
Format settings, ReFrames : 3 frames
Codec ID : V_MPEG4/ISO/AVC
Duration : 44 min 28 s
Bit rate mode : Variable
Bit rate : 7 500 kb/s
Maximum bit rate : 11.2 Mb/s
Width : 1 920 pixels
Height : 1 080 pixels
Display aspect ratio : 16:9
Frame rate mode : Constant
Frame rate : 23.976 (24000/1001) FPS
Color space : YUV
Chroma subsampling : 4:2:0
Bit depth : 8 bits
Scan type : Progressive
Bits/(Pixel*Frame) : 0.151
Stream size : 2.30 GiB (92%)
Writing library : x264 core 148 r2715 7e75228
Encoding settings : cabac=1 / ref=3 / deblock=1:0:0 / analyse=0x1:0x111 / me=umh / subme=10 / psy=1 / psy_rd=1.00:0.00 / mixed_ref=1 / me_range=24 / chroma_me=1 / trellis=2 / 8x8dct=0 / cqm=0 / deadzone=21,11 / fast_pskip=1 / chroma_qp_offset=-2 / threads=8 / lookahead_threads=1 / sliced_threads=0 / nr=0 / decimate=1 / interlaced=0 / bluray_compat=0 / stitchable=1 / constrained_intra=0 / bframes=2 / b_pyramid=0 / b_adapt=2 / b_bias=0 / direct=3 / weightb=1 / open_gop=0 / weightp=2 / keyint=48 / keyint_min=25 / scenecut=0 / intra_refresh=0 / rc_lookahead=48 / rc=2pass / mbtree=1 / bitrate=7500 / ratetol=1.0 / qcomp=0.50 / qpmin=6 / qpmax=51 / qpstep=4 / cplxblur=20.0 / qblur=0.5 / vbv_maxrate=11250 / vbv_bufsize=15000 / nal_hrd=vbr / filler=0 / ip_ratio=1.40 / aq=1:1.00
Default : Yes
Forced : No

Audio
ID : 2
Format : E-AC-3
Format/Info : Enhanced AC-3
Commercial name : Dolby Digital Plus
Codec ID : A_EAC3
Duration : 44 min 28 s
Bit rate mode : Constant
Bit rate : 640 kb/s
Channel(s) : 6 channels
Channel layout : L R C LFE Ls Rs
Sampling rate : 48.0 kHz
Frame rate : 31.250 FPS (1536 SPF)
Compression mode : Lossy
Stream size : 204 MiB (8%)
Language : Portuguese
Service kind : Complete Main
Default : Yes
Forced : No

Text #1
ID : 3
Format : UTF-8
Codec ID : S_TEXT/UTF8
Codec ID/Info : UTF-8 Plain Text
Duration : 42 min 46 s
Bit rate : 44 b/s
Count of elements : 432
Stream size : 14.0 KiB (0%)
Language : English
Default : No
Forced : No

Text #2
ID : 4
Format : UTF-8
Codec ID : S_TEXT/UTF8
Codec ID/Info : UTF-8 Plain Text
Duration : 42 min 48 s
Bit rate : 47 b/s
Count of elements : 464
Stream size : 15.0 KiB (0%)
Title : SDH
Language : English
Default : No
Forced : No

Text #3
ID : 5
Format : UTF-8
Codec ID : S_TEXT/UTF8
Codec ID/Info : UTF-8 Plain Text
Duration : 42 min 46 s
Bit rate : 44 b/s
Count of elements : 426
Stream size : 14.0 KiB (0%)
Language : English
Default : No
Forced : No

Text #4
ID : 6
Format : UTF-8
Codec ID : S_TEXT/UTF8
Codec ID/Info : UTF-8 Plain Text
Duration : 42 min 46 s
Bit rate : 77 b/s
Count of elements : 429
Stream size : 24.3 KiB (0%)
Language : Arabic
Default : No
Forced : No

Text #5
ID : 7
Format : UTF-8
Codec ID : S_TEXT/UTF8
Codec ID/Info : UTF-8 Plain Text
Duration : 42 min 46 s
Bit rate : 78 b/s
Count of elements : 431
Stream size : 24.7 KiB (0%)
Language : Bulgarian
Default : No
Forced : No

Text #6
ID : 8
Format : UTF-8
Codec ID : S_TEXT/UTF8
Codec ID/Info : UTF-8 Plain Text
Duration : 42 min 46 s
Bit rate : 38 b/s
Count of elements : 424
Stream size : 12.2 KiB (0%)
Language : Danish
Default : No
Forced : No

Text #7
ID : 9
Format : UTF-8
Codec ID : S_TEXT/UTF8
Codec ID/Info : UTF-8 Plain Text
Duration : 42 min 46 s
Bit rate : 46 b/s
Count of elements : 431
Stream size : 14.7 KiB (0%)
Language : German
Default : No
Forced : No

Text #8
ID : 10
Format : UTF-8
Codec ID : S_TEXT/UTF8
Codec ID/Info : UTF-8 Plain Text
Duration : 42 min 46 s
Bit rate : 73 b/s
Count of elements : 457
Stream size : 23.1 KiB (0%)
Language : Greek
Default : No
Forced : No

Text #9
ID : 11
Format : UTF-8
Codec ID : S_TEXT/UTF8
Codec ID/Info : UTF-8 Plain Text
Duration : 42 min 46 s
Bit rate : 43 b/s
Count of elements : 429
Stream size : 13.6 KiB (0%)
Language : Spanish
Default : No
Forced : No

Text #10
ID : 12
Format : UTF-8
Codec ID : S_TEXT/UTF8
Codec ID/Info : UTF-8 Plain Text
Duration : 42 min 46 s
Bit rate : 44 b/s
Count of elements : 428
Stream size : 14.0 KiB (0%)
Title : European
Language : Spanish
Default : No
Forced : No

Text #11
ID : 13
Format : UTF-8
Codec ID : S_TEXT/UTF8
Codec ID/Info : UTF-8 Plain Text
Duration : 42 min 46 s
Bit rate : 42 b/s
Count of elements : 401
Stream size : 13.2 KiB (0%)
Language : Finnish
Default : No
Forced : No

Text #12
ID : 14
Format : UTF-8
Codec ID : S_TEXT/UTF8
Codec ID/Info : UTF-8 Plain Text
Duration : 42 min 46 s
Bit rate : 47 b/s
Count of elements : 426
Stream size : 14.8 KiB (0%)
Language : French
Default : No
Forced : No

Text #13
ID : 15
Format : UTF-8
Codec ID : S_TEXT/UTF8
Codec ID/Info : UTF-8 Plain Text
Duration : 42 min 46 s
Bit rate : 70 b/s
Count of elements : 426
Stream size : 21.9 KiB (0%)
Language : Hebrew
Default : No
Forced : No

Text #14
ID : 16
Format : UTF-8
Codec ID : S_TEXT/UTF8
Codec ID/Info : UTF-8 Plain Text
Duration : 42 min 46 s
Bit rate : 46 b/s
Count of elements : 426
Stream size : 14.5 KiB (0%)
Language : Italian
Default : No
Forced : No

Text #15
ID : 17
Format : UTF-8
Codec ID : S_TEXT/UTF8
Codec ID/Info : UTF-8 Plain Text
Duration : 42 min 46 s
Bit rate : 39 b/s
Count of elements : 491
Stream size : 12.3 KiB (0%)
Language : Japanese
Default : No
Forced : No

Text #16
ID : 18
Format : UTF-8
Codec ID : S_TEXT/UTF8
Codec ID/Info : UTF-8 Plain Text
Duration : 42 min 46 s
Bit rate : 50 b/s
Count of elements : 438
Stream size : 16.0 KiB (0%)
Language : Korean
Default : No
Forced : No

Text #17
ID : 19
Format : UTF-8
Codec ID : S_TEXT/UTF8
Codec ID/Info : UTF-8 Plain Text
Duration : 42 min 46 s
Bit rate : 39 b/s
Count of elements : 394
Stream size : 12.4 KiB (0%)
Language : Norwegian Bokmal
Default : No
Forced : No

Text #18
ID : 20
Format : UTF-8
Codec ID : S_TEXT/UTF8
Codec ID/Info : UTF-8 Plain Text
Duration : 42 min 46 s
Bit rate : 42 b/s
Count of elements : 413
Stream size : 13.4 KiB (0%)
Language : Dutch
Default : No
Forced : No

Text #19
ID : 21
Format : UTF-8
Codec ID : S_TEXT/UTF8
Codec ID/Info : UTF-8 Plain Text
Duration : 42 min 46 s
Bit rate : 44 b/s
Count of elements : 428
Stream size : 13.9 KiB (0%)
Language : Polish
Default : No
Forced : No

Text #20
ID : 22
Format : UTF-8
Codec ID : S_TEXT/UTF8
Codec ID/Info : UTF-8 Plain Text
Duration : 42 min 44 s
Bit rate : 52 b/s
Count of elements : 456
Stream size : 16.4 KiB (0%)
Title : Brazilian SDH
Language : Portuguese
Default : No
Forced : No

Text #21
ID : 23
Format : UTF-8
Codec ID : S_TEXT/UTF8
Codec ID/Info : UTF-8 Plain Text
Duration : 42 min 42 s
Bit rate : 49 b/s
Count of elements : 427
Stream size : 15.4 KiB (0%)
Title : Brazilian
Language : Portuguese
Default : No
Forced : No

Text #22
ID : 24
Format : UTF-8
Codec ID : S_TEXT/UTF8
Codec ID/Info : UTF-8 Plain Text
Duration : 42 min 42 s
Bit rate : 43 b/s
Count of elements : 430
Stream size : 13.6 KiB (0%)
Language : Romanian
Default : No
Forced : No

Text #23
ID : 25
Format : UTF-8
Codec ID : S_TEXT/UTF8
Codec ID/Info : UTF-8 Plain Text
Duration : 42 min 46 s
Bit rate : 43 b/s
Count of elements : 420
Stream size : 13.5 KiB (0%)
Language : Swedish
Default : No
Forced : No

Text #24
ID : 26
Format : UTF-8
Codec ID : S_TEXT/UTF8
Codec ID/Info : UTF-8 Plain Text
Duration : 42 min 46 s
Bit rate : 114 b/s
Count of elements : 424
Stream size : 35.8 KiB (0%)
Language : Thai
Default : No
Forced : No

Text #25
ID : 27
Format : UTF-8
Codec ID : S_TEXT/UTF8
Codec ID/Info : UTF-8 Plain Text
Duration : 42 min 46 s
Bit rate : 45 b/s
Count of elements : 425
Stream size : 14.1 KiB (0%)
Language : Turkish
Default : No
Forced : No

Text #26
ID : 28
Format : UTF-8
Codec ID : S_TEXT/UTF8
Codec ID/Info : UTF-8 Plain Text
Duration : 44 min 4 s
Bit rate : 57 b/s
Count of elements : 427
Stream size : 18.4 KiB (0%)
Language : Vietnamese
Default : No
Forced : No

Text #27
ID : 29
Format : UTF-8
Codec ID : S_TEXT/UTF8
Codec ID/Info : UTF-8 Plain Text
Duration : 42 min 46 s
Bit rate : 40 b/s
Count of elements : 423
Stream size : 12.6 KiB (0%)
Title : Simplified
Language : Chinese
Default : No
Forced : No

Text #28
ID : 30
Format : UTF-8
Codec ID : S_TEXT/UTF8
Codec ID/Info : UTF-8 Plain Text
Duration : 42 min 46 s
Bit rate : 40 b/s
Count of elements : 423
Stream size : 12.7 KiB (0%)
Title : Traditional
Language : Chinese
Default : No
Forced : No

Menu
00:02:26.417 : en:Intro start
00:03:24.352 : en:Intro end




2 个附件 售价 大小 下载 时间

3.Percent.S02.PORTUGUESE.1080p.NF.WEBRip.DDP5.1.x264-QOQ[btbtt.me].torrent 0 金币 89.80K 1701 次 7月前

3.Percent.S02.PORTUGUESE.720p.NF.WEBRip.DDP5.1.x264-QOQ[btbtt.me].torrent 0 金币 50.83K 616 次 7月前

#1楼
发帖时间:2019-02-07 19:33:33   |   回复数:2
呆呆狐狸
超级版主
追加720P
7月前 #2楼
chulps
一代宗师
~ 感谢分享 ~ 感谢 ~
7月前 #3楼
游客组