呆呆狐狸
超级版主

[2018] [美国] [历史] [打包] [BT下载][美第奇家族:翡冷翠名门/Medici 第二季][全08集打包][英语中字][MKV][720P/1080P][片源]

-->

注:Netflix版片源 内含官方中字  自带字幕较多自行切换 更多字幕详见下面参数列表


◎译  名 美第奇家族:翡冷翠名门 第二季 / I Medici / Los Medici: Señores de Florencia / 美第奇家族:佛罗伦萨名门 / 美第奇:佛罗伦萨的主人

◎片  名 Medici: Masters of Florence Season 2

◎年  代 2018

◎产  地 英国 / 意大利

◎类  别 剧情 / 传记 / 历史

◎语  言 英语

◎上映日期 2018-10-23(意大利)

◎IMDb评分 8.2/10 from 37 users

◎IMDb链接 http://www.imdb.com/title/tt7282696

◎豆瓣评分 8.1/10 from 627 users

◎豆瓣链接 https://movie.douban.com/subject/27110439/

◎BT之家整理 http://www.51btbtt.com/

◎集  数 8

◎片  长 60分钟

◎导  演 强·卡萨 Jon Cassar

◎编  剧 弗兰克·斯伯特尼 Frank Spotnitz

◎主  演 肖恩·宾 Sean Bean

      布莱德利·詹姆斯 Bradley James

      丹尼尔·沙曼 Daniel Sharman

      莎拉·帕里什 Sarah Parish

      朱利安·山德斯 Julian Sands

      西诺薇·卡尔森 Synnove Karlsen

      亚历桑德拉·马斯特罗纳迪 Alessandra Mastronardi

      雷欧·波瓦 Raoul Bova

      塞巴斯蒂安·德·索萨 Sebastian De Souza

      菲利波·尼格鲁 Filippo Nigro

      山姆·泰勒·巴克 Sam Taylor Buck

      查利·维克斯 Charlie Vickers

      米歇尔·鲍尔杜奇 Michele Balducci




◎简  介  


  丹尼尔·沙曼、布莱德利·詹姆斯加盟Netflix剧集《美第奇家族》第二季。沙曼饰演洛伦佐·德·梅第奇,詹姆斯扮演其弟朱利亚诺·德·梅第奇。本季故事围绕兄弟两人展开,他们想让佛罗伦萨成为金融、文化中心,同时还要和帕齐家族对抗。剧集共8集,8月24日罗马开拍。



Video
ID : 1
Format : AVC
Format/Info : Advanced Video Codec
Format profile : [email protected]
Format settings : CABAC / 4 Ref Frames
Format settings, CABAC : Yes
Format settings, ReFrames : 4 frames
Codec ID : V_MPEG4/ISO/AVC
Duration : 56 min 50 s
Bit rate : 14.8 Mb/s
Width : 1 920 pixels
Height : 960 pixels
Display aspect ratio : 2.000
Frame rate mode : Constant
Frame rate : 25.000 FPS
Color space : YUV
Chroma subsampling : 4:2:0
Bit depth : 8 bits
Scan type : Progressive
Bits/(Pixel*Frame) : 0.322
Stream size : 5.90 GiB (96%)
Writing library : x264 core 157 r2935 545de2f
Encoding settings : cabac=1 / ref=4 / deblock=1:-3:-3 / analyse=0x3:0x133 / me=umh / subme=10 / psy=1 / psy_rd=1.00:0.00 / mixed_ref=1 / me_range=48 / chroma_me=1 / trellis=2 / 8x8dct=1 / cqm=0 / deadzone=21,11 / fast_pskip=0 / chroma_qp_offset=-2 / threads=24 / lookahead_threads=4 / sliced_threads=0 / nr=0 / decimate=0 / interlaced=0 / bluray_compat=0 / constrained_intra=0 / bframes=8 / b_pyramid=2 / b_adapt=2 / b_bias=0 / direct=3 / weightb=1 / open_gop=0 / weightp=2 / keyint=250 / keyint_min=25 / scenecut=40 / intra_refresh=0 / rc=crf / mbtree=0 / crf=17.0 / qcomp=0.60 / qpmin=0 / qpmax=69 / qpstep=4 / ip_ratio=1.30 / pb_ratio=1.20 / aq=3:0.80
Language : English
Default : Yes
Forced : No

Audio
ID : 2
Format : E-AC-3
Format/Info : Enhanced AC-3
Commercial name : Dolby Digital Plus
Codec ID : A_EAC3
Duration : 56 min 51 s
Bit rate mode : Constant
Bit rate : 640 kb/s
Channel(s) : 6 channels
Channel layout : L R C LFE Ls Rs
Sampling rate : 48.0 kHz
Frame rate : 31.250 FPS (1536 SPF)
Compression mode : Lossy
Stream size : 260 MiB (4%)
Title : English
Language : English
Service kind : Complete Main
Default : Yes
Forced : No

Text #1
ID : 3
Format : UTF-8
Codec ID : S_TEXT/UTF8
Codec ID/Info : UTF-8 Plain Text
Duration : 53 min 15 s
Bit rate : 57 b/s
Count of elements : 721
Stream size : 22.4 KiB (0%)
Title : SDH
Language : English
Default : No
Forced : No

Text #2
ID : 4
Format : UTF-8
Codec ID : S_TEXT/UTF8
Codec ID/Info : UTF-8 Plain Text
Duration : 52 min 44 s
Bit rate : 50 b/s
Count of elements : 628
Stream size : 19.4 KiB (0%)
Title : Traditional
Language : Chinese
Default : No
Forced : No

Menu
00:00:05.000 : en:Intro start
00:01:23.720 : en:Intro end



2 个附件 售价 大小 下载 时间

Medici.Masters.Of.Florence.S02.720p.NF.WEB.DDP5.1.x264-NTb[btbtt.me].torrent 0 金币 64.22K 1036 次 7月前

Medici.Masters.Of.Florence.S02.1080p.NF.WEB.DDP5.1.x264-NTb[btbtt.me].torrent 0 金币 103.37K 1638 次 7月前

#1楼
发帖时间:2019-02-05 19:43:09   |   回复数:0
游客组