呆呆狐狸
超级版主

[2018] [美国] [科幻] [打包] [BT下载][脉冲/脉冲少女/Impulse 第一季][全10集打包][英语英字][MKV][720P/1080P/2160P][片源]

-->


◎译  名 脉冲 / 脉冲少女

◎片  名 Impulse

◎年  代 2018

◎产  地 美国

◎类  别 动作 / 科幻

◎语  言 英语

◎上映日期 2018-06-06(美国)

◎IMDb评分 7.5/10 from 5232 users

◎IMDb链接 http://www.imdb.com/title/tt6160506

◎豆瓣评分 6.2/10 from 594 users

◎豆瓣链接 https://movie.douban.com/subject/27596258/

◎BT之家整理 http://www.51btbtt.com/

◎集  数 10

◎片  长 47分钟

◎导  演 梅尔西·阿尔马斯 Mairzee Almas / 雪梨·道比什 Cherien Dabis / 艾德·弗列曼 Ed Fraiman / 丽贝卡·约翰逊 Rebecca Johnson / 亚历克斯·卡利姆诺伊斯 Alex Kalymnios / 玛吉·基莉  Maggie Kiley / 道格·里曼 Doug Liman / 海伦·谢费 Helen Shaver / 马克·托德莱 Mark Tonderai / 瓦莱丽·韦斯 Valerie Weiss

◎编  剧 Lauren LeFranc / 史蒂文·古尔德 Steven Gould

◎主  演 麦蒂·哈森 Maddie Hasson

      莎拉·德贾斯丁 Sarah Desjardins

      恩卡·奥库玛 Enuka Okuma

      克雷格·阿诺德 craig arnold

      坦纳·斯泰恩 Tanner Stine

      米西·派勒 Missi Pyle

      大卫·詹姆斯·艾略特 David James Elliott

      肖恩·多伊尔 Shawn Doyle

      考乐姆·吉斯·雷尼 Callum Keith Rennie

      丹尼尔·马斯拉尼 Daniel Maslany

      Genevieve Kang

      Gabriel Darku

      基翁·亚历山大 Keon Alexander

      Dylan Trowbridge

      Gordon Harper

      Rohan Mead

      艾丹·迪瓦恩 Aidan Devine

      蕾切尔·威尔森 Rachel Wilson

      劳伦·科林斯 Lauren Collins

      克里斯蒂安·布鲁恩 Kristian Bruun

      宝拉·布德罗 Paula Boudreau

      杰弗里·庞塞特 Geoffrey Pounsett

      杜安·莫瑞 Duane Murray

      米歇尔·诺尔顿 Michelle Nolden

      阿马迪厄斯·塞拉菲尼 Amadeus Serafini

      科甘-迈克尔·凯 Keegan-Michael Key

      神奈川宏幸 Hiro Kanagawa

      凯文·汉查德 Kevin Hanchard




◎简  介  


  基于Steven Gould所著同名小说,讲述16岁女孩Henrietta发现自己拥有心灵传输的能力,她第一次发现这点时与高中的一位“黄金男孩”在一辆卡车里,后者试图强奸她。Henrietta突然发作的能力无意中将男孩压伤,造成截瘫。她要重新审视这场意外,以及超能力带给她的优势和弱点。麦蒂·哈森(《见习修女》《格林》)、米西·派勒、Sarah Desjardins、Enuka Okuma、Craig Arnold等参演,道格·里曼参与执导和制片。


Video
ID : 1
Format : VP9
Codec ID : V_VP9
Duration : 51 min 34 s
Bit rate : 11.3 Mb/s
Width : 3 840 pixels
Height : 2 160 pixels
Display aspect ratio : 16:9
Frame rate mode : Constant
Frame rate : 23.976 (24000/1001) FPS
Color space : YUV
Bits/(Pixel*Frame) : 0.057
Stream size : 4.08 GiB (96%)
Language : English
Default : No
Forced : No
Color range : Limited
Color primaries : BT.709
Transfer characteristics : BT.709
Matrix coefficients : BT.709

Audio #1
ID : 2
Format : AAC
Format/Info : Advanced Audio Codec
Format profile : LC
Codec ID : A_AAC-2
Duration : 51 min 35 s
Bit rate : 384 kb/s
Channel(s) : 6 channels
Channel positions : Front: L C R, Side: L R, LFE
Sampling rate : 48.0 kHz
Frame rate : 46.875 FPS (1024 SPF)
Compression mode : Lossy
Stream size : 142 MiB (3%)
Language : English
Default : Yes
Forced : No

Audio #2
ID : 3
Format : Opus
Codec ID : A_OPUS
Duration : 51 min 34 s
Bit rate : 107 kb/s
Channel(s) : 2 channels
Channel positions : Front: L R
Sampling rate : 48.0 kHz
Frame rate : 50.000 FPS (960 SPF)
Compression mode : Lossy
Stream size : 39.6 MiB (1%)
Language : English
Default : No
Forced : No

Text
ID : 4
Format : UTF-8
Codec ID : S_TEXT/UTF8
Codec ID/Info : UTF-8 Plain Text
Duration : 51 min 27 s
Bit rate : 66 b/s
Count of elements : 982
Stream size : 25.1 KiB (0%)
Default : No
Forced : No



3 个附件 售价 大小 下载 时间

Impulse.S01.720p.RED.WEBRip.AAC5.1.VP9-NTb[btbtt.me].torrent 0 金币 99.36K 420 次 7月前

Impulse.S01.1080p.RED.WEBRip.AAC5.1.x264-MIXED[btbtt.me].torrent 0 金币 43.78K 658 次 7月前

Impulse.S01.2160p.RED.WEBRip.AAC5.1.VP9-NTb[btbtt.me].torrent 0 金币 100.94K 532 次 7月前

#1楼
发帖时间:2019-02-04 11:03:57   |   回复数:0
游客组