呆呆狐狸
超级版主

[2018] [美国] [犯罪] [打包] [BT下载][秃鹰/Condor 第一季][全10集打包][英语英字][MKV][720P/1080P][片源]

-->


◎译  名 秃鹰 第一季

◎片  名 Condor Season 1

◎年  代 2018

◎产  地 美国

◎类  别 悬疑 / 惊悚 / 犯罪

◎语  言 英语

◎上映日期 2018-06-06(美国)

◎IMDb评分 7.8/10 from 5639 users

◎IMDb链接 http://www.imdb.com/title/tt6510950

◎豆瓣评分 7.7/10 from 3632 users

◎豆瓣链接 https://movie.douban.com/subject/26969746/

◎BT之家整理 http://www.51btbtt.com/

◎集  数 10

◎片  长 45分钟

◎导  演 劳伦斯·特里林 Lawrence Trilling / 安德鲁·麦卡锡 Andrew McCarthy

◎编  剧 Todd Katzberg / 杰森·史米洛维克 Jason Smilovic / Ken Robinson

◎主  演 马克斯·艾恩斯 Max Irons

      布兰登·费舍 Brendan Fraser

      凯瑟琳·坎宁安 Katherine Cunningham

      米拉·索维诺 Mira Sorvino

      威廉·赫特 William Hurt

      鲍勃·巴拉班 Bob Balaban

      丽姆·卢巴尼 Leem Lubani

      克里斯汀·哈格 Kristen Hager

      安吉尔·伯纳尼 Angel Bonanni

      克里斯蒂娜·玛丽·摩西 Christina Marie Moses

      Gabriel Hogan

      克里斯托弗·普拉哈 Kristoffer Polaha

      凯特·维隆 Kate Vernon

      Steve Belford

      Mouna Traoré

      Gage Graham-Arbuthnot

      麦丽莎·奥尼尔 Melissa O'Neil




◎简  介  


  Max Irons以主演加盟Audience Network直接预订10集的《秃鹰 Condor》,该剧根据1975年的政治惊悚片《秃鹰七十二小时 Three Days of the Condor》所改篇。Max Irons将饰演Joe Turner,该角在电影中由Robert Redford饰演。

剧集版由Jason Smilovic及Todd Katzberg执笔,讲述年轻的CIA分析员Joe Turner,他的理想主义在一个恐怖﹑天才﹑能威胁到数百万条人命的计划前受到考验。Joe Turner是个理想主义的千禧一代,他秘密加入CIA,希望能从内部改革。但是当办公室所有人都被职业杀手所杀后,他被迫离开象牙塔,并进入这场危险的战争中。如果要生存下去,他得做出过去从未想象过能做到的事,并且要理解到自己真正性格。


Video
ID : 1
Format : AVC
Format/Info : Advanced Video Codec
Format profile : [email protected]
Format settings : CABAC / 4 Ref Frames
Format settings, CABAC : Yes
Format settings, ReFrames : 4 frames
Codec ID : V_MPEG4/ISO/AVC
Duration : 53 min 33 s
Bit rate mode : Constant
Bit rate : 5 941 kb/s
Nominal bit rate : 10 000 kb/s
Width : 1 920 pixels
Height : 960 pixels
Display aspect ratio : 2.000
Frame rate mode : Constant
Frame rate : 23.976 (24000/1001) FPS
Color space : YUV
Chroma subsampling : 4:2:0
Bit depth : 8 bits
Scan type : Progressive
Bits/(Pixel*Frame) : 0.134
Stream size : 2.22 GiB (90%)
Default : Yes
Forced : No
Color range : Limited
Color primaries : BT.709
Transfer characteristics : BT.709
Matrix coefficients : BT.709

Audio
ID : 2
Format : E-AC-3
Format/Info : Enhanced AC-3
Commercial name : Dolby Digital Plus
Codec ID : A_EAC3
Duration : 53 min 33 s
Bit rate mode : Constant
Bit rate : 640 kb/s
Channel(s) : 6 channels
Channel layout : L R C LFE Ls Rs
Sampling rate : 48.0 kHz
Frame rate : 31.250 FPS (1536 SPF)
Compression mode : Lossy
Stream size : 245 MiB (10%)
Language : English
Service kind : Complete Main
Default : Yes
Forced : No

Text
ID : 3
Format : UTF-8
Codec ID : S_TEXT/UTF8
Codec ID/Info : UTF-8 Plain Text
Duration : 51 min 34 s
Bit rate : 71 b/s
Count of elements : 824
Stream size : 27.1 KiB (0%)
Title : SDH
Language : English
Default : No
Forced : No



2 个附件 售价 大小 下载 时间

Condor.S01.720p.AMZN.WEBRip.DDP5.1.x264-NTb[btbtt.me].torrent 0 金币 52.79K 665 次 7月前

Condor.S01.1080p.AMZN.WEBRip.DDP5.1.x264-NTb[btbtt.me].torrent 0 金币 54.78K 1029 次 7月前

#1楼
发帖时间:2019-01-28 22:24:02   |   回复数:0
游客组