呆呆狐狸
超级版主

[2013] [美国] [纪录] [打包] [BT下载][旧车游世界 Wreck Trek 第一季][全20集打包][英语英字][MKV][1080P][片源]

-->

◎译  名 旧车游世界

◎片  名 Wreck Trek

◎年  代 2013

◎产  地 美国

◎类  别 纪录片

◎语  言 英语

◎IMDb评分 4.6/10 from 83 users

◎IMDb链接 http://www.imdb.com/title/tt2609546

◎BT之家整理 http://www.51btbtt.com/

◎片  长 24


◎简  介  


  Salvage cars in Berlin are fixed up specifically for a cross continent run though Africa. They face breakdowns, extreme terrain and even robbery.



Video
ID : 1
Format : AVC
Format/Info : Advanced Video Codec
Format profile : [email protected]
Format settings : CABAC / 4 Ref Frames
Format settings, CABAC : Yes
Format settings, ReFrames : 4 frames
Codec ID : V_MPEG4/ISO/AVC
Duration : 24 min 40 s
Bit rate : 9 132 kb/s
Width : 1 920 pixels
Height : 1 080 pixels
Display aspect ratio : 16:9
Frame rate mode : Constant
Frame rate : 25.000 FPS
Color space : YUV
Chroma subsampling : 4:2:0
Bit depth : 8 bits
Scan type : Progressive
Bits/(Pixel*Frame) : 0.176
Stream size : 1.57 GiB (98%)
Default : Yes
Forced : No
Color range : Limited
Color primaries : BT.709
Transfer characteristics : BT.709
Matrix coefficients : BT.709

Audio
ID : 2
Format : E-AC-3
Format/Info : Enhanced AC-3
Commercial name : Dolby Digital Plus
Codec ID : A_EAC3
Duration : 24 min 40 s
Bit rate mode : Constant
Bit rate : 224 kb/s
Channel(s) : 2 channels
Channel layout : L R
Sampling rate : 48.0 kHz
Frame rate : 31.250 FPS (1536 SPF)
Compression mode : Lossy
Stream size : 39.5 MiB (2%)
Language : English
Service kind : Complete Main
Default : Yes
Forced : No

Text
ID : 3
Format : UTF-8
Codec ID : S_TEXT/UTF8
Codec ID/Info : UTF-8 Plain Text
Duration : 24 min 31 s
Bit rate : 106 b/s
Count of elements : 529
Stream size : 19.1 KiB (0%)
Title : SDH
Language : English
Default : No
Forced : No



1 个附件 售价 大小 下载 时间

Wreck.Trek.S01.1080p.AMZN.WEBRip.DDP2.0.x264-NTb[btbtt.me].torrent 0 金币 77.53K 490 次 7月前

#1楼
发帖时间:2019-01-27 11:19:47   |   回复数:2
911degrees
隐世仙人♂
非常感谢,谢谢分享
7月前 #2楼
chulps
一代宗师
~ 感谢分享 ~ 感谢 ~
7月前 #3楼
游客组