呆呆狐狸
超级版主

[2018] [英国] [悬疑] [打包] [BT下载][雪岛迷踪/雪镇疑杀/冰原谜案 Fortitude 第三季][全04集打包][英语英字][BD-MKV][720P/1080P][片源]

-->

◎译  名 雪镇疑杀 第三季

◎片  名 Fortitude Season3

◎年  代 2018

◎国  家 英国

◎类  别 悬疑/惊悚

◎语  言 英语

◎IMDb评分  7.8/10 from 101 users

◎IMDb链接  http://www.imdb.com/title/tt4594028/

◎BT之家整理 http://www.51btbtt.com/

◎集  数 10

◎片  长 50分钟

◎导  演 希提·麦克唐纳 Hettie MacDonald

◎主  演 罗伯特·希恩 Robert Sheehan


◎简  介


  第三季不是一个常规季,而是一个只有四部分的迷你季。虽然名义上该剧还未被取消,但第三季就是终结季的事实恐怕无法改变。在地方行政长官Munk被吊死之后,两名奥斯陆来的警官进驻坚毅镇对这起谋杀案展开调查。他们很快发现,这个看似宁静美好的地方实际上暗流涌动,这里的居民每个人都有黑暗的秘密。与此同时,Hildur和Munk的死给坚毅镇造成极大的冲击,无论警察、科学家还是普通居民都要为整件事情承担一定的责任,提防寄生虫的进一步伤害和萨满巫师的愤怒。Dan Andersson已经迷失了方向,尽管他没有被寄生虫杀死,也逃过了冰冷的北极海水、药物过量、绑架和酷刑的诸多折磨,但这位坚毅镇警长无法再判断正与邪、对与错,他的世界在崩塌、在碎裂、在快速改变。伤心和失败的打击让Michael Lennox走上了酗酒的道路,几乎快把自己喝死——直到他过去认识的女人Elsa Schenthal突然来到镇上。他们两人的历史已经非常久远,但曾经发生过的事情仍然历历在目……因为Elsa要为许多灾难负主要责任。Elsa向Michael提供了一条救赎之路。另一方面,那些不愿安息的逝者的「幽灵」开始在小镇边缘出现,让这个冰冻的、与世隔绝的北极世界陷入新的危机。Dennis Quaid、Richard Dormer、Sienna Guillory、Luke Treadaway、Alexandra Moen、Mia Jexen、Bjorn Hlynur Haraldsson、Parminder Nagra、Robert Sheehan、Michelle Fairley主演该剧。


Video
ID : 1
Format : AVC
Format/Info : Advanced Video Codec
Format profile : [email protected]
Format settings : CABAC / 5 Ref Frames
Format settings, CABAC : Yes
Format settings, ReFrames : 5 frames
Codec ID : V_MPEG4/ISO/AVC
Duration : 46 min 11 s
Bit rate : 5 254 kb/s
Width : 1 280 pixels
Height : 720 pixels
Display aspect ratio : 16:9
Frame rate mode : Constant
Frame rate : 25.000 FPS
Color space : YUV
Chroma subsampling : 4:2:0
Bit depth : 8 bits
Scan type : Progressive
Bits/(Pixel*Frame) : 0.228
Stream size : 1.70 GiB (78%)
Writing library : x264 core 157 r2935 545de2f
Encoding settings : cabac=1 / ref=5 / deblock=1:-3:-3 / analyse=0x3:0x113 / me=umh / subme=8 / psy=1 / psy_rd=1.00:0.00 / mixed_ref=1 / me_range=24 / chroma_me=1 / trellis=1 / 8x8dct=1 / cqm=0 / deadzone=21,11 / fast_pskip=1 / chroma_qp_offset=-2 / threads=18 / lookahead_threads=3 / sliced_threads=0 / nr=0 / decimate=1 / interlaced=0 / bluray_compat=0 / constrained_intra=0 / bframes=3 / b_pyramid=2 / b_adapt=2 / b_bias=0 / direct=3 / weightb=1 / open_gop=0 / weightp=2 / keyint=250 / keyint_min=25 / scenecut=40 / intra_refresh=0 / rc_lookahead=50 / rc=2pass / mbtree=1 / bitrate=5254 / ratetol=1.0 / qcomp=0.60 / qpmin=0 / qpmax=69 / qpstep=4 / cplxblur=20.0 / qblur=0.5 / ip_ratio=1.40 / aq=3:0.80
Default : Yes
Forced : No

Audio
ID : 2
Format : DTS
Format/Info : Digital Theater Systems
Codec ID : A_DTS
Duration : 46 min 11 s
Bit rate mode : Constant
Bit rate : 1 509 kb/s
Channel(s) : 6 channels
Channel layout : C L R Ls Rs LFE
Sampling rate : 48.0 kHz
Frame rate : 93.750 FPS (512 SPF)
Bit depth : 24 bits
Compression mode : Lossy
Stream size : 499 MiB (22%)
Language : English
Default : Yes
Forced : No

Text #1
ID : 3
Format : UTF-8
Codec ID : S_TEXT/UTF8
Codec ID/Info : UTF-8 Plain Text
Duration : 45 min 24 s
Bit rate : 43 b/s
Count of elements : 467
Stream size : 14.4 KiB (0%)
Language : English
Default : No
Forced : No

Text #2
ID : 4
Format : UTF-8
Codec ID : S_TEXT/UTF8
Codec ID/Info : UTF-8 Plain Text
Duration : 45 min 24 s
Bit rate : 48 b/s
Count of elements : 591
Stream size : 16.2 KiB (0%)
Title : SDH
Language : English
Default : No
Forced : No

Menu
00:00:00.000 : en:Chapter 01
00:12:55.440 : en:Chapter 02
00:24:21.320 : en:Chapter 03
00:36:55.880 : en:Chapter 04



2 个附件 售价 大小 下载 时间

Fortitude.S03.720p.BluRay.x264-SHORTBREHD[btbtt.me].torrent 0 金币 45.11K 784 次 8月前

Fortitude.S03.1080p.BluRay.x264-SHORTBREHD[btbtt.me].torrent 0 金币 67.04K 525 次 7月前

#1楼
发帖时间:2019-01-26 20:13:26   |   回复数:3
911degrees
隐世仙人♂
非常感谢,谢谢分享
7月前 #2楼
呆呆狐狸
超级版主
追加1080P
7月前 #3楼
chulps
一代宗师
~ 感谢分享 ~ 感谢 ~
7月前 #4楼
游客组