呆呆狐狸
超级版主

[2013] [美国] [科幻] [打包] [BT下载][未来青年/The Tomorrow People 第一季][全22集打包][英语英字][MKV][1080P][片源]

-->


◎译  名 未来青年 / 异能行者(港) / 超能新一代

◎片  名 The Tomorrow People

◎年  代 2013

◎产  地 美国

◎类  别 剧情 / 科幻

◎语  言 英语

◎上映日期 2013-10-09(美国)

◎IMDb评分 7.3/10 from 32171 users

◎IMDb链接 http://www.imdb.com/title/tt2660734

◎豆瓣评分 5.9/10 from 1316 users

◎豆瓣链接 https://movie.douban.com/subject/22615706/

◎BT之家整理 http://www.btbtt.us/

◎集  数 22

◎片  长 45分钟

◎导  演 丹尼·加农 Danny Cannon

◎编  剧 Phil Klemmer

◎主  演 Luke Mitchell

      罗比·阿美尔 Robbie Amell

      Amanda Clarke

      佩顿·利斯特 Peyton List

      Madeleine Mantock

      马克·佩雷格里诺 Mark Pellegrino

      艾伦·余 Aaron Yoo

      莎拉·克拉克 Sarah Clarke

      杰弗里·皮尔斯 Jeffrey Pierce

      Peter Greenwood




◎简  介  


  史蒂芬(罗比·阿梅尔 Robbie Amell 饰)本是一介平凡的少年,一次偶然中,他的脑海里传了一个神秘的声音。无法用科学来解释的怪异现象接连地在史蒂芬的身上发生了,史蒂芬发现自己竟然掌握了瞬间移动的特异功能,只是这特异功能并不听从史蒂芬个人意志的指挥,这也就意味着,就连史蒂芬自己也不知道,下一秒,他将出现在哪里,身处何处。

痛苦之中,史蒂芬开始向脑海里声音求助,根据声音的指引,史蒂芬找到了和自己有着相似经历的少年们,他们是约翰(卢克·米切尔 Luke Mitchell 饰)、卡拉(佩顿·利斯特 Peyton List 饰)和罗素(艾伦·余 Aaron Yoo 饰)。找到了“组织”之后,史蒂芬的生活会遭遇怎样的改变呢?


Video
ID : 1
Format : AVC
Format/Info : Advanced Video Codec
Format profile : [email protected]
Format settings : CABAC / 4 Ref Frames
Format settings, CABAC : Yes
Format settings, ReFrames : 4 frames
Codec ID : V_MPEG4/ISO/AVC
Duration : 42 min 26 s
Bit rate : 5 268 kb/s
Width : 1 916 pixels
Height : 1 076 pixels
Display aspect ratio : 16:9
Frame rate mode : Constant
Frame rate : 23.976 FPS
Color space : YUV
Chroma subsampling : 4:2:0
Bit depth : 8 bits
Scan type : Progressive
Bits/(Pixel*Frame) : 0.107
Stream size : 1.56 GiB (91%)
Language : English
Default : Yes
Forced : No
Color range : Limited
Color primaries : BT.709
Transfer characteristics : BT.709
Matrix coefficients : BT.709

Audio
ID : 2
Format : AC-3
Format/Info : Audio Coding 3
Commercial name : Dolby Digital
Codec ID : A_AC3
Duration : 42 min 26 s
Bit rate mode : Constant
Bit rate : 384 kb/s
Channel(s) : 6 channels
Channel layout : L R C LFE Ls Rs
Sampling rate : 48.0 kHz
Frame rate : 31.250 FPS (1536 SPF)
Bit depth : 16 bits
Compression mode : Lossy
Stream size : 117 MiB (7%)
Language : English
Service kind : Complete Main
Default : Yes
Forced : No

Text
ID : 3
Format : UTF-8
Codec ID : S_TEXT/UTF8
Codec ID/Info : UTF-8 Plain Text
Language : English
Default : No
Forced : No



1 个附件 售价 大小 下载 时间

The.Tomorrow.People.S01.1080p.WEB-DL.DD5.1.H264-ECI[btbtt.me].torrent 0 金币 85.37K 623 次 8月前

#1楼
发帖时间:2019-01-14 11:26:47   |   回复数:1
911degrees
隐世仙人♂
非常感谢,谢谢分享
8月前 #2楼
游客组