呆呆狐狸
超级版主

[2018] [美国] [科幻] [打包] [BT下载][太空猎手扫兴者/赏金猎人 Killjoys 第四季][全10集打包][英语无字][BD-MKV][720P/1080P][片源]

-->

◎译  名 扫兴者 第四季

◎片  名 Killjoys Season 4

◎年  代 2018

◎产  地 加拿大

◎类  别 动作/科幻/惊悚/冒险

◎语  言 英语

◎上映日期 2018-06(加拿大)

◎BT之家整理 http://www.btbtt.us/

◎导  演 斯特凡·普莱斯驰恩斯基 Stefan Pleszczynski

◎主  演 汉娜·乔恩·卡门 Hannah John-Kamen

      艾伦·阿什莫 Aaron Ashmore

      卢克·马可法莱恩 Luke Macfarlane

      汤米-安珀·皮里 Tommie-Amber Pirie

      帕特里克·加洛 Patrick Garrow

      克里斯塔·布里吉斯 Krista Bridges

      杰瑞米·雷蒙德 Jeremy Raymond

      Thom Allison



◎简  介


  第三季结束时,扫兴者们分散到了J星系的遥远角落。Dutch将面对自己从所未遇的强大敌人,D’avin、John和怀孕的Delle Seyah困在一座深空电梯里。为了迎接真正强敌「女士」(The Lady)的挑战,他们再次团结起来。「女士」是无穷邪恶的化身,无始无终,也从不显露原形。「女士」在玩一场由她制定规则的游戏,三个主人公掌握着她需要的东西——Hullen Heir。


Video
ID : 1
Format : AVC
Format/Info : Advanced Video Codec
Format profile : [email protected]
Format settings : CABAC / 5 Ref Frames
Format settings, CABAC : Yes
Format settings, ReFrames : 5 frames
Codec ID : V_MPEG4/ISO/AVC
Duration : 42 min 57 s
Bit rate : 5 765 kb/s
Width : 1 280 pixels
Height : 720 pixels
Display aspect ratio : 16:9
Frame rate mode : Constant
Frame rate : 23.976 (24000/1001) FPS
Color space : YUV
Chroma subsampling : 4:2:0
Bit depth : 8 bits
Scan type : Progressive
Bits/(Pixel*Frame) : 0.261
Stream size : 1.73 GiB (79%)
Writing library : x264 core 157 r2935 545de2f
Encoding settings : cabac=1 / ref=5 / deblock=1:0:0 / analyse=0x3:0x133 / me=umh / subme=7 / psy=1 / psy_rd=1.00:0.00 / mixed_ref=1 / me_range=16 / chroma_me=1 / trellis=1 / 8x8dct=1 / cqm=0 / deadzone=21,11 / fast_pskip=0 / chroma_qp_offset=-2 / threads=22 / lookahead_threads=3 / sliced_threads=0 / nr=0 / decimate=1 / interlaced=0 / bluray_compat=0 / constrained_intra=0 / bframes=3 / b_pyramid=2 / b_adapt=1 / b_bias=0 / direct=1 / weightb=1 / open_gop=0 / weightp=2 / keyint=250 / keyint_min=23 / scenecut=40 / intra_refresh=0 / rc_lookahead=40 / rc=2pass / mbtree=1 / bitrate=5765 / ratetol=1.0 / qcomp=0.60 / qpmin=0 / qpmax=69 / qpstep=4 / cplxblur=20.0 / qblur=0.5 / ip_ratio=1.40 / aq=1:1.00
Language : English
Default : Yes
Forced : No

Audio
ID : 2
Format : DTS
Format/Info : Digital Theater Systems
Codec ID : A_DTS
Duration : 42 min 57 s
Bit rate mode : Constant
Bit rate : 1 509 kb/s
Channel(s) : 6 channels
Channel layout : C L R Ls Rs LFE
Sampling rate : 48.0 kHz
Frame rate : 93.750 FPS (512 SPF)
Bit depth : 24 bits
Compression mode : Lossy
Stream size : 464 MiB (21%)
Language : English
Default : Yes
Forced : No

Menu
00:00:00.000 : en:00:00:00.000
00:04:59.674 : en:00:04:59.674
00:12:20.823 : en:00:12:20.823
00:18:45.041 : en:00:18:45.041
00:23:27.323 : en:00:23:27.323
00:28:50.395 : en:00:28:50.395
00:34:55.885 : en:00:34:55.885



2 个附件 售价 大小 下载 时间

Killjoys.S04.720p.BluRay.x264-DEMAND[btbtt.me].torrent 0 金币 57.53K 434 次 8月前

Killjoys.S04.1080p.BluRay.x264-ROVERS[btbtt.me].torrent 0 金币 84.88K 658 次 8月前

#1楼
发帖时间:2019-01-11 16:03:03   |   回复数:1
911degrees
隐世仙人♂
非常感谢,谢谢分享
8月前 #2楼
游客组