呆呆狐狸
超级版主

[2018] [美国] [奇幻] [打包] [BT下载][凡妮莎海辛/范海辛 Van Helsing 第三季][全13集打包][英语英字][MKV][720P/1080P][片源]

-->

◎译  名 凡妮莎海辛 第三季/范海辛/瓦妮莎海辛/女版范海辛

◎片  名 Van Helsing Season 3

◎年  代 2018

◎产  地 美国

◎类  别 剧情/动作/科幻/奇幻/恐怖

◎语  言 英语

◎上映日期 2018-10(美国)

◎IMDb评分  8.1/10 from 15 users

◎IMDb链接  http://www.imdb.com/title/tt7787492/

◎BT之家整理 http://www.btbtt.us/

◎集  数 13

◎主  演 凯莉·欧沃顿 Kelly Overton

      乔纳森·斯卡弗 Jonathan Scarfe


◎简  介


  在3×01《Fresh Tendrils》中,Vanessa被一个会变形的、忠于范海辛家族的古老吸血鬼咬了之后,再次复活并面对家族的命运。在「弯崖」(Crooked Falls),Axel、Scarlett和其他人全力抵抗Blak Tek的势力,阻止他们将Scarlett变成他们的研究对象。在3×02《Super Unknown》中,「第一长老」(First Elder)将Vanessa、Scarlett和Axel全都带到一座被废弃的精神病院,试图借助他们来找到图腾。在这个被最强大的吸血鬼严密保护的地方,Vanessa等人竟然意外发现了一位早已死去的范海辛家族亲属的遗产。


Video
ID : 1
Format : AVC
Format/Info : Advanced Video Codec
Format profile : [email protected]
Format settings : CABAC / 4 Ref Frames
Format settings, CABAC : Yes
Format settings, ReFrames : 4 frames
Codec ID : V_MPEG4/ISO/AVC
Duration : 42 min 52 s
Bit rate : 12.3 Mb/s
Width : 1 920 pixels
Height : 1 080 pixels
Display aspect ratio : 16:9
Frame rate mode : Constant
Frame rate : 23.976 (24000/1001) FPS
Color space : YUV
Chroma subsampling : 4:2:0
Bit depth : 8 bits
Scan type : Progressive
Bits/(Pixel*Frame) : 0.248
Stream size : 3.69 GiB (95%)
Default : Yes
Forced : No
Color range : Limited
Color primaries : BT.709
Transfer characteristics : BT.709
Matrix coefficients : BT.709

Audio
ID : 2
Format : E-AC-3
Format/Info : Enhanced AC-3
Commercial name : Dolby Digital Plus
Codec ID : A_EAC3
Duration : 42 min 52 s
Bit rate mode : Constant
Bit rate : 640 kb/s
Channel(s) : 6 channels
Channel layout : L R C LFE Ls Rs
Sampling rate : 48.0 kHz
Frame rate : 31.250 FPS (1536 SPF)
Compression mode : Lossy
Stream size : 196 MiB (5%)
Language : English
Service kind : Complete Main
Default : Yes
Forced : No

Text #1
ID : 3
Format : UTF-8
Codec ID : S_TEXT/UTF8
Codec ID/Info : UTF-8 Plain Text
Duration : 42 min 27 s
Bit rate : 52 b/s
Count of elements : 733
Stream size : 16.4 KiB (0%)
Language : English
Default : No
Forced : No

Text #2
ID : 4
Format : UTF-8
Codec ID : S_TEXT/UTF8
Codec ID/Info : UTF-8 Plain Text
Duration : 42 min 27 s
Bit rate : 55 b/s
Count of elements : 808
Stream size : 17.4 KiB (0%)
Title : SDH
Language : English
Default : No
Forced : No



2 个附件 售价 大小 下载 时间

Van.Helsing.S03.720p.AMZN.WEBRip.DDP5.1.x264-AJP69[btbtt.me].torrent 0 金币 60.72K 700 次 8月前

Van.Helsing.S03.1080p.AMZN.WEBRip.DDP5.1.x264-AJP69[btbtt.me].torrent 0 金币 95.08K 1120 次 8月前

#1楼
发帖时间:2019-01-08 13:23:22   |   回复数:1
911degrees
隐世仙人♂
非常感谢,谢谢分享
8月前 #2楼
游客组