呆呆狐狸
超级版主

[2018] [美国] [惊悚] [打包] [BT下载][黑色童话/Tell Me a Story 第一季][全10集][英语中字][MKV][720P/1080P][AMZN+字幕]

-->

◎译  名 黑色童话 第一季 / 黑色现代童话

◎片  名 Tell Me a Story Season 1

◎年  代 2018

◎产  地 美国

◎类  别 剧情 / 惊悚

◎语  言 英语

◎上映日期 2018-10-31(美国)

◎IMDb评分 7.0/10 from 2106 users

◎IMDb链接 http://www.imdb.com/title/tt7695916

◎豆瓣评分 7.6/10 from 1499 users

◎豆瓣链接 https://movie.douban.com/subject/27594878/

◎BT之家整理 http://www.btbtt.us/

◎集  数 10

◎片  长 50分钟

◎导  演 里兹·弗德兰德 Liz Friedlander

◎编  剧 凯文·威廉姆森 Kevin Williamson

◎主  演 詹姆斯·沃克 James Wolk

      比利·马格努森 Billy Magnussen

      丹妮亚·拉米雷兹 Dania Ramirez

      丹妮尔·坎贝尔 Danielle Campbell

      道林·米西克 Dorian Missick

      山姆·贾格 Sam Jaeger

      戴维·桑托斯 Davi Santos

      迈克尔·雷蒙德-詹姆斯 Michael Raymond-James

      保罗·韦斯利 Paul Wesley

      金·凯特罗尔 Kim Cattrall

      保利娜·辛格 Paulina Singer

      扎布丽娜·格瓦拉 Zabryna Guevara

      克里斯·布罗楚 Chris Brochu

      斯特林·奈特 Sterling Knight

      科特·耶格尔 Kurt Yaeger

      詹姆斯·马丁内斯 James Martinez

      拉米安·纽顿 Rarmian Newton

      丹·安博尔 Dan Amboyer

      托尼娅·格兰茨 Tonya Glanz




◎简  介  


  CBS All Access在竞投下直接预订《吸血鬼日记 The Vampire Diaries》主创所Kevin Williamson开发及执笔的剧集《黑色童话 Tell Me a Story》,这部由同名西班牙剧改编的剧集把各种名童话重新改编,然后转化成黑暗﹑扭曲的心理惊悚剧,现定于美国时间万圣节(10月31日)上线。

Liz Friedlander执导的10集首季设置在现代纽约市,剧情会把《三只小猪 The Three Little Pigs》﹑《小红帽 Little Red Riding Hood》及《糖果屋 Hansel and Gretel》融合起来,交织成包括爱情﹑失去﹑贪婪﹑复仇及谋杀等题材的故事。主演包括James Wolk﹑Michael Raymond-James﹑Sam Jaeger﹑Zabryna Guevara﹑Paul Wesley及Kim Cattrall。


Video
ID : 1
Format : AVC
Format/Info : Advanced Video Codec
Format profile : [email protected]
Format settings : CABAC / 4 Ref Frames
Format settings, CABAC : Yes
Format settings, ReFrames : 4 frames
Format settings, GOP : M=4, N=48
Codec ID : V_MPEG4/ISO/AVC
Duration : 44 min 59 s
Bit rate mode : Constant
Bit rate : 10 000 kb/s
Width : 1 920 pixels
Height : 1 080 pixels
Display aspect ratio : 16:9
Frame rate mode : Constant
Frame rate : 23.976 (24000/1001) FPS
Color space : YUV
Chroma subsampling : 4:2:0
Bit depth : 8 bits
Scan type : Progressive
Bits/(Pixel*Frame) : 0.201
Stream size : 3.03 GiB (97%)
Language : English
Default : Yes
Forced : No
Color range : Limited
Color primaries : BT.709
Transfer characteristics : BT.709
Matrix coefficients : BT.709

Audio
ID : 2
Format : E-AC-3
Format/Info : Enhanced AC-3
Commercial name : Dolby Digital Plus
Codec ID : A_EAC3
Duration : 44 min 59 s
Bit rate mode : Constant
Bit rate : 256 kb/s
Channel(s) : 6 channels
Channel layout : L R C LFE Ls Rs
Sampling rate : 48.0 kHz
Frame rate : 31.250 FPS (1536 SPF)
Compression mode : Lossy
Stream size : 82.4 MiB (3%)
Language : English
Service kind : Complete Main
Default : Yes
Forced : No

Text
ID : 3
Format : UTF-8
Codec ID : S_TEXT/UTF8
Codec ID/Info : UTF-8 Plain Text
Duration : 43 min 27 s
Bit rate : 56 b/s
Count of elements : 712
Stream size : 18.1 KiB (0%)
Title : SDH
Language : English
Default : No
Forced : No



#1楼
发帖时间:2019-01-07 22:32:50   |   回复数:3
911degrees
隐世仙人♂
非常感谢,谢谢分享
8月前 #2楼
chulps
一代宗师
ddd
8月前 #3楼
david19710102
超级版主
0720
2月前 #4楼
游客组