呆呆狐狸
超级版主

[2018] [美国] [奇幻] [打包] [BT下载][城堡岩/堡岩/城堡石 Castle Rock 第一季][全10集打包][英语无字][BD-MKV][720P/1080P][片源]

-->

◎译  名 城堡岩/堡岩/城堡石/岩堡镇

◎片  名 Castle Rock

◎年  代 2018

◎产  地 美国

◎类  别 剧情/悬疑/奇幻

◎语  言 英语

◎上映日期 2018-07-25(美国)

◎IMDb评分  9.0/10 from 341 users

◎IMDb链接  http://www.imdb.com/title/tt6548228/

◎BT之家整理 http://www.btbtt.us/

◎集  数 10

◎导  演 迈克尔·乌彭达尔 Michael Uppendahl

◎主  演 比尔·斯卡斯加德 Bill Skarsgård

      安德烈·霍兰 Andre Holland

      简·拉维 Jane Levy

      茜茜·斯派塞克 Sissy Spacek

      梅兰妮·林斯基 Melanie Lynskey

      斯科特·格伦 Scott Glenn

      特瑞·欧奎恩 Terry O'Quinn

      乔森·雅各布 Chosen Jacobs


◎简  介


  史蒂芬·金与J·J·艾布拉姆斯再度携手,打造Hulu新剧《城堡石》(Castle Rock,暂译)。该剧会把史蒂芬·金数部小说及短篇故事集中在一个背景地点展现,预热先导预告也同时发布。尚不知道该剧会以独立故事构成,还是会用不同作品串联成一个完整故事。



Video
ID : 1
Format : AVC
Format/Info : Advanced Video Codec
Format profile : [email protected]
Format settings : CABAC / 5 Ref Frames
Format settings, CABAC : Yes
Format settings, ReFrames : 5 frames
Codec ID : V_MPEG4/ISO/AVC
Duration : 59 min 51 s
Bit rate : 4 815 kb/s
Width : 1 280 pixels
Height : 640 pixels
Display aspect ratio : 2.000
Frame rate mode : Constant
Frame rate : 23.976 (24000/1001) FPS
Color space : YUV
Chroma subsampling : 4:2:0
Bit depth : 8 bits
Scan type : Progressive
Bits/(Pixel*Frame) : 0.245
Stream size : 2.01 GiB (76%)
Writing library : x264 core 157 r2935 545de2f
Encoding settings : cabac=1 / ref=5 / deblock=1:-3:-3 / analyse=0x3:0x133 / me=umh / subme=8 / psy=1 / psy_rd=1.00:0.00 / mixed_ref=1 / me_range=16 / chroma_me=1 / trellis=1 / 8x8dct=1 / cqm=0 / deadzone=21,11 / fast_pskip=0 / chroma_qp_offset=-2 / threads=20 / lookahead_threads=3 / sliced_threads=0 / nr=0 / decimate=1 / interlaced=0 / bluray_compat=0 / constrained_intra=0 / bframes=3 / b_pyramid=2 / b_adapt=1 / b_bias=0 / direct=3 / weightb=1 / open_gop=0 / weightp=2 / keyint=250 / keyint_min=23 / scenecut=40 / intra_refresh=0 / rc_lookahead=50 / rc=2pass / mbtree=1 / bitrate=4815 / ratetol=1.0 / qcomp=0.60 / qpmin=0 / qpmax=69 / qpstep=4 / cplxblur=20.0 / qblur=0.5 / vbv_maxrate=62500 / vbv_bufsize=78125 / nal_hrd=none / filler=0 / ip_ratio=1.40 / aq=1:1.00
Default : Yes
Forced : No

Audio
ID : 2
Format : DTS
Format/Info : Digital Theater Systems
Codec ID : A_DTS
Duration : 59 min 51 s
Bit rate mode : Constant
Bit rate : 1 509 kb/s
Channel(s) : 6 channels
Channel layout : C L R Ls Rs LFE
Sampling rate : 48.0 kHz
Frame rate : 93.750 FPS (512 SPF)
Bit depth : 24 bits
Compression mode : Lossy
Stream size : 646 MiB (24%)
Language : English
Default : Yes
Forced : No

Menu
00:00:00.000 : en:00:00:00.000
00:08:08.571 : en:00:08:08.571
00:22:33.519 : en:00:22:33.519
00:34:04.376 : en:00:34:04.376
00:43:49.752 : en:00:43:49.752
00:54:37.441 : en:00:54:37.441
00:58:00.769 : en:00:58:00.769



2 个附件 售价 大小 下载 时间

Castle.Rock.S01.720p.BluRay.x264-DEMAND[btbtt.me].torrent 0 金币 59.74K 791 次 8月前

Castle.Rock.S01.1080p.BluRay.x264-ROVERS[btbtt.me].torrent 0 金币 106.70K 931 次 8月前

#1楼
发帖时间:2019-01-05 11:35:02   |   回复数:2
呆呆狐狸
超级版主
追加1080P
8月前 #2楼
911degrees
隐世仙人♂
非常感谢,谢谢分享
8月前 #3楼
游客组