呆呆狐狸
超级版主

[2018] [美国] [奇幻] [打包] [BT下载][德州午夜/得州午夜 Midnight Texas 第二季][全09集打包][英语英字][MKV][1080P][片源]

-->

◎译  名 德州午夜

◎片  名 Midnight, Texas

◎年  代 2018

◎产  地 美国

◎类  别 奇幻/惊悚

◎语  言 英语

◎IMDb评分  8.4/10 from 94 users

◎IMDb链接  http://www.imdb.com/title/tt5464086/

◎BT之家整理 http://www.btbtt.us/

◎集  数 09

◎导  演 涅尔斯·阿登·欧普勒夫 Niels Arden Oplev

◎主  演 弗朗索瓦·阿诺德 François Arnaud

      迪兰·布鲁斯 Dylan Bruce

      阿莉尔·凯贝尔 Arielle Kebbel

      詹森·刘易斯 Jason Lewis

      莎拉·拉莫斯 Sarah Ramos

      彼得·门萨 Peter Mensah

      尤尔·瓦斯克斯 Yul Vazquez

      Joanne Camp

      约翰-保罗·霍华德 John-Paul Howard

      Joe Smith

      Kellee Stewart


◎简  介


  在2×01《Head Games》中,午夜镇居民封闭了地狱裂隙,终于能让生活复归平静……至少表面上看起来正常了。然而一家新旅馆开张后,这种稳定再次被打破了。与此同时,Manfred必须面对一个可怕的现实……为了拯救Fiji同时「吸收」六个恶魔肯定会有某种后果。Joe交了一个新朋友。



Video
ID : 1
Format : AVC
Format/Info : Advanced Video Codec
Format profile : [email protected]
Format settings : CABAC / 4 Ref Frames
Format settings, CABAC : Yes
Format settings, ReFrames : 4 frames
Codec ID : V_MPEG4/ISO/AVC
Duration : 42 min 57 s
Bit rate : 5 361 kb/s
Width : 1 920 pixels
Height : 1 080 pixels
Display aspect ratio : 16:9
Frame rate mode : Constant
Frame rate : 23.976 (24000/1001) FPS
Color space : YUV
Chroma subsampling : 4:2:0
Bit depth : 8 bits
Scan type : Progressive
Bits/(Pixel*Frame) : 0.108
Stream size : 1.61 GiB (89%)
Default : Yes
Forced : No
Color range : Limited
Color primaries : BT.709
Transfer characteristics : BT.709
Matrix coefficients : BT.709

Audio
ID : 2
Format : E-AC-3
Format/Info : Enhanced AC-3
Commercial name : Dolby Digital Plus
Codec ID : A_EAC3
Duration : 42 min 57 s
Bit rate mode : Constant
Bit rate : 640 kb/s
Channel(s) : 6 channels
Channel layout : L R C LFE Ls Rs
Sampling rate : 48.0 kHz
Frame rate : 31.250 FPS (1536 SPF)
Compression mode : Lossy
Stream size : 197 MiB (11%)
Language : English
Service kind : Complete Main
Default : Yes
Forced : No

Text
ID : 3
Format : UTF-8
Codec ID : S_TEXT/UTF8
Codec ID/Info : UTF-8 Plain Text
Duration : 42 min 7 s
Bit rate : 59 b/s
Count of elements : 888
Stream size : 18.4 KiB (0%)
Title : SDH
Language : English
Default : No
Forced : No



2 个附件 售价 大小 下载 时间

Midnight.Texas.S02.720p.AMZN.WEBRip.DDP5.1.x264-MIXED[btbtt.me].torrent 0 金币 63.90K 623 次 8月前

Midnight.Texas.S02.1080p.AMZN.WEBRip.DDP5.1.x264-MIXED[btbtt.me].torrent 0 金币 70.58K 994 次 8月前

#1楼
发帖时间:2018-12-29 21:22:39   |   回复数:0
游客组