呆呆狐狸
超级版主

[2018] [德国] [历史] [打包] [BT下载][从海底出击 Das Boot 第一季][全08集打包][德语无字][MKV][1080P][片源]

-->

◎译  名 从海底出击 第一季

◎片  名 Das Boot Season 1

◎年  代 2018

◎产  地 德国

◎类  别 剧情 / 历史 / 战争

◎语  言 德语 / 英语 / 法语

◎上映日期 2018-11-23(德国)

◎IMDb评分 6.8/10 from 393 users

◎IMDb链接 http://www.imdb.com/title/tt5830254

◎BT之家整理 http://www.btbtt.us/

◎集  数 8

◎片  长 60分钟

◎导  演 安德烈亚斯·普罗查斯卡 Andreas Prochaska

◎编  剧 Johannes W. Betz / Tony Saint / 西蒙·艾伦 Simon Allen / 洛塔尔·G·布赫海姆 Lothar G. Buchheim / Laura Grace / 贝内迪克特·罗斯考 Benedikt Roeskau

◎主  演 丽兹·卡潘 Lizzy Caplan

      弗兰茨·丁达 Franz Dinda

      薇姬·克里普斯 Vicky Krieps

      里克·奥肯 Rick Okon

      罗伯特·施塔德洛伯 Robert Stadlober

      August wittgenstein

      汤姆·拉斯齐哈 Tom Wlaschiha

      文森特·卡塞瑟 Vincent Kartheiser

      詹姆斯·达西 James D'Arcy

      赖纳·博克 Rainer Bock

      蒂埃里·弗雷蒙 Thierry Frémont




◎简  介  


  德国巴伐利亚工作室将翻拍《从海底出击》。影片讲述二战时期,发生在深海U型潜艇上的惊险故事,原版由沃尔夫冈·彼德森执导,是影史上最成功的德国电影之一,它在当时获得了包括最佳导演在内的6项奥斯卡提名。目前,巴伐利亚工作室将尚未透露影片选角信息及拍摄计划。


Video
ID : 1
Format : AVC
Format/Info : Advanced Video Codec
Format profile : [email protected]
Format settings : CABAC / 5 Ref Frames
Format settings, CABAC : Yes
Format settings, ReFrames : 5 frames
Format settings, GOP : M=4, N=50
Codec ID : avc1
Codec ID/Info : Advanced Video Coding
Duration : 1 h 1 min
Bit rate mode : Constant
Bit rate : 1 500 kb/s
Width : 1 280 pixels
Height : 720 pixels
Display aspect ratio : 16:9
Frame rate mode : Constant
Frame rate : 25.000 FPS
Color space : YUV
Chroma subsampling : 4:2:0
Bit depth : 8 bits
Scan type : Progressive
Bits/(Pixel*Frame) : 0.065
Stream size : 655 MiB (92%)
Color range : Limited
Color primaries : BT.709
Transfer characteristics : BT.709
Matrix coefficients : BT.709
Codec configuration box : avcC

Audio
ID : 2
Format : AAC LC
Format/Info : Advanced Audio Codec Low Complexity
Codec ID : mp4a-40-2
Duration : 1 h 1 min
Bit rate mode : Constant
Bit rate : 126 kb/s
Channel(s) : 2 channels
Channel layout : L R
Sampling rate : 44.1 kHz
Frame rate : 43.066 FPS (1024 SPF)
Compression mode : Lossy
Stream size : 54.9 MiB (8%)
Default : Yes
Alternate group : 1



1 个附件 售价 大小 下载 时间

Das.Boot.2018.S01.GERMAN.720p.WEB-DL.AAC2.0.H264-BTN[btbtt.me].torrent 0 金币 55.02K 2996 次 9月前

#1楼
发帖时间:2018-12-14 12:04:51   |   回复数:3
wwwparty
武林高手
感谢分享
9月前 #2楼
911degrees
隐世仙人♂
非常感谢,谢谢分享
9月前 #3楼
brohter
小有名气
德国人拍的二战片都是“很闷、很Man”的
9月前 #4楼
游客组