呆呆狐狸
超级版主

[2018] [德国] [纪录] [打包] [BT下载][欧洲的故事/The Story of Europe 第一季][全06集打包][英语无字][MKV][720P][片源]

-->

◎译  名 欧洲的故事

◎片  名 The Story of Europe

◎年  代 2018

◎产  地 德國 Germany

◎类  别 紀錄片 Documentary

◎语  言 英语

◎BT之家整理 http://www.btbtt.us/

◎集  数 6

◎片  长 51m

◎主  演 Christopher Clark



◎标  签 英文


◎简  介  


  This ground-breaking series tells the story of Europe in six glossy episodes exploring different chapters of its eventful history. It’s a journey through time and across space, from physical beginnings to the first human settlers, the evolution of European culture and religion, historical achievements in exploration, technology and politics, and a daring look at the continent’s present and future. Europe has been at the heart of world events for thousands of years and laid the foundations for much of modern society worldwide, while its perpetually fluctuating landscapes, climate, fauna and flora have shaped its own story.

This series explores different aspects of the continent’s incredible history, always set against the bigger picture. Stunning photography, pertinent questions and surprising insights paint a mesmerising portrait of Europe.


Video
ID : 1
Format : AVC
Format/Info : Advanced Video Codec
Format profile : [email protected]
Format settings : CABAC / 5 Ref Frames
Format settings, CABAC : Yes
Format settings, ReFrames : 5 frames
Codec ID : V_MPEG4/ISO/AVC
Duration : 51 min 33 s
Bit rate mode : Variable
Bit rate : 2 473 kb/s
Maximum bit rate : 3 199 kb/s
Width : 1 280 pixels
Height : 720 pixels
Display aspect ratio : 16:9
Frame rate mode : Constant
Frame rate : 50.000 FPS
Color space : YUV
Chroma subsampling : 4:2:0
Bit depth : 8 bits
Scan type : Progressive
Bits/(Pixel*Frame) : 0.054
Stream size : 912 MiB (96%)
Default : Yes
Forced : No
Color range : Limited
Color primaries : BT.709
Transfer characteristics : BT.709
Matrix coefficients : BT.709

Audio
ID : 2
Format : AAC LC
Format/Info : Advanced Audio Codec Low Complexity
Codec ID : A_AAC-2
Duration : 51 min 33 s
Bit rate : 96.0 kb/s
Channel(s) : 2 channels
Channel layout : L R
Sampling rate : 44.1 kHz
Frame rate : 43.066 FPS (1024 SPF)
Compression mode : Lossy
Stream size : 35.4 MiB (4%)
Language : English
Default : Yes
Forced : No



1 个附件 售价 大小 下载 时间

The.Story.of.Europe.S01.720p.ZDF.WEBRip.AAC2.0.x264-RTN[btbtt.me].torrent 0 金币 55.14K 1659 次 9月前

#1楼
发帖时间:2018-12-10 19:32:32   |   回复数:1
911degrees
隐世仙人♂
非常感谢,谢谢分享
9月前 #2楼
游客组