呆呆狐狸
超级版主

[2018] [德国] [犯罪] [打包] [BT下载][格拉德贝克人质事件 54 Hours 第一季][全04集打包][德语无字][MKV][720P/1080P][片源]

-->


◎译  名 格拉德贝克人质事件 / 54 Hours

◎片  名 Gladbeck

◎年  代 2018

◎产  地 德国

◎类  别 剧情 / 惊悚 / 犯罪

◎语  言 德语

◎上映日期 2018-03-07(德国)

◎IMDb评分 7.7/10 from 602 users

◎IMDb链接 http://www.imdb.com/title/tt5760392

◎BT之家整理 http://www.btbtt.us/

◎集  数 4

◎片  长 90分钟

◎导  演 基里安·里霍夫 Kilian Riedhof

◎编  剧 霍尔格·卡斯滕·施密特 Holger Karsten Schmidt

◎主  演 萨沙·亚历山大·吉尔萨克 Sascha Alexander Gersak

      亚历山大·吉尔 Alexander Scheer

      Marie Rosa Tietjen




◎简  介  


  1988年8月16日,汉斯-约尔根·霍斯纳和迪特·德高夫斯基抢劫了位于德国北威州格拉德贝克的德意志银行,并掳走两名银行职员作为人质。事件发生后,由弗里德里希·迈泽带领的警方迅速展开行动,以期尽快抓住罪犯。面对警方的包围,他们开始了两天的逃亡。期间霍斯纳的女友玛丽昂·吕布利希在不来梅挟持了一辆载有三十名乘客的公交车以帮助两人摆脱警方追捕。由于抢劫犯手中握有众多人质,为保护人质,德国警方迟迟无法进行有效的行动打击罪犯。德高夫斯基随后在逃亡的路上射杀了十四岁的少年埃曼纽埃尔,事态愈发严重,人质的死亡让警方的行动迫在眉睫……影片改编自真实事件,还原了联邦德国历史上最富戏剧性的抢劫大案。(小易甫字幕组)


Video
ID : 1
Format : AVC
Format/Info : Advanced Video Codec
Format profile : [email protected]
Format settings : CABAC / 4 Ref Frames
Format settings, CABAC : Yes
Format settings, ReFrames : 4 frames
Codec ID : V_MPEG4/ISO/AVC
Duration : 44 min 43 s
Bit rate : 4 594 kb/s
Width : 1 920 pixels
Height : 1 080 pixels
Display aspect ratio : 16:9
Frame rate mode : Constant
Frame rate : 25.000 FPS
Color space : YUV
Chroma subsampling : 4:2:0
Bit depth : 8 bits
Scan type : Progressive
Bits/(Pixel*Frame) : 0.089
Stream size : 1.44 GiB (95%)
Default : Yes
Forced : No
Color range : Limited
Color primaries : BT.709
Transfer characteristics : BT.709
Matrix coefficients : BT.709

Audio
ID : 2
Format : E-AC-3
Format/Info : Enhanced AC-3
Commercial name : Dolby Digital Plus
Codec ID : A_EAC3
Duration : 44 min 43 s
Bit rate mode : Constant
Bit rate : 224 kb/s
Channel(s) : 2 channels
Channel layout : L R
Sampling rate : 48.0 kHz
Frame rate : 31.250 FPS (1536 SPF)
Compression mode : Lossy
Stream size : 71.7 MiB (5%)
Title : German
Language : German
Service kind : Complete Main
Default : Yes
Forced : No



#1楼
发帖时间:2018-12-08 21:50:20   |   回复数:1
911degrees
隐世仙人♂
非常感谢,谢谢分享
9月前 #2楼
游客组