呆呆狐狸
超级版主

[2018] [其他] [惊悚] [打包] [BT下载][挽歌1983/1983·局/1983 第一季][全08集打包][波兰语中字][MKV][720P/1080P][片源]

-->

注:Netflix版片源 内含官方中字  更多字幕详见下面参数列表

◎译  名 1983·局(港) / 挽歌1983(台)

◎片  名 1983

◎年  代 2018

◎产  地 波兰

◎类  别 剧情 / 惊悚 / 犯罪

◎语  言 波兰语 / 英语

◎上映日期 2018-11-30(美国)

◎IMDb链接 http://www.imdb.com/title/tt7371666

◎BT之家整理 http://www.btbtt.us/

◎集  数 8

◎编  剧 Joshua Long

◎主  演 伊娃·布拉什奇克 Ewa Blaszczyk

      安杰列·查拉 Andrzej Chyra

      Agnieszka Glinska

      Wojciech Kalarus

      Maciej Musial

      米卡丽娜·欧赞思佳 Michalina Olszańska

      伊黛塔·奥丝佐卡 Edyta Olszówka

      Krystian Pesta

      凯瑟琳·斯凯娜卡 Katarzyna Skarzanka

      海伦娜·苏耶茨卡 Helena Sujecka

      索菲亚·威奇拉克斯 Zofia Wichlacz

      罗伯特·温茨凯维奇 Robert Wieckiewicz

      米洛斯拉夫·兹布罗邹维奇 Miroslaw Zbrojewicz

      帕特里夏·沃莉 Patrycja Volny




◎简  介  


  1983年,发生恐怖袭击的数十年后,一名法律系学生和警察揭发一桩阴谋,发现波兰当时仍为极权国家以及铁幕依然存在的背后原因!



Video
ID : 1
Format : AVC
Format/Info : Advanced Video Codec
Format profile : [email protected]
Format settings : CABAC / 3 Ref Frames
Format settings, CABAC : Yes
Format settings, ReFrames : 3 frames
Codec ID : V_MPEG4/ISO/AVC
Duration : 56 min 20 s
Bit rate mode : Variable
Bit rate : 3 247 kb/s
Nominal bit rate : 3 480 kb/s
Maximum bit rate : 5 220 kb/s
Width : 1 920 pixels
Height : 1 080 pixels
Display aspect ratio : 16:9
Frame rate mode : Constant
Frame rate : 25.000 FPS
Color space : YUV
Chroma subsampling : 4:2:0
Bit depth : 8 bits
Scan type : Progressive
Bits/(Pixel*Frame) : 0.063
Stream size : 1.28 GiB (83%)
Writing library : x264 core 148 r2715 7e75228
Encoding settings : cabac=1 / ref=3 / deblock=1:0:0 / analyse=0x1:0x111 / me=umh / subme=10 / psy=1 / psy_rd=1.00:0.00 / mixed_ref=1 / me_range=24 / chroma_me=1 / trellis=2 / 8x8dct=0 / cqm=0 / deadzone=21,11 / fast_pskip=1 / chroma_qp_offset=-2 / threads=8 / lookahead_threads=1 / sliced_threads=0 / nr=0 / decimate=1 / interlaced=0 / bluray_compat=0 / stitchable=1 / constrained_intra=0 / bframes=2 / b_pyramid=0 / b_adapt=2 / b_bias=0 / direct=3 / weightb=1 / open_gop=0 / weightp=2 / keyint=50 / keyint_min=26 / scenecut=0 / intra_refresh=0 / rc_lookahead=50 / rc=2pass / mbtree=1 / bitrate=3480 / ratetol=1.0 / qcomp=0.50 / qpmin=6 / qpmax=51 / qpstep=4 / cplxblur=20.0 / qblur=0.5 / vbv_maxrate=5220 / vbv_bufsize=6960 / nal_hrd=vbr / filler=0 / ip_ratio=1.40 / aq=1:1.00
Default : Yes
Forced : No

Audio
ID : 2
Format : E-AC-3
Format/Info : Enhanced AC-3
Commercial name : Dolby Digital Plus
Codec ID : A_EAC3
Duration : 56 min 20 s
Bit rate mode : Constant
Bit rate : 640 kb/s
Channel(s) : 6 channels
Channel layout : L R C LFE Ls Rs
Sampling rate : 48.0 kHz
Frame rate : 31.250 FPS (1536 SPF)
Compression mode : Lossy
Stream size : 258 MiB (16%)
Title : Polish
Language : Polish
Service kind : Complete Main
Default : No
Forced : No

Text #1
ID : 3
Format : UTF-8
Codec ID : S_TEXT/UTF8
Codec ID/Info : UTF-8 Plain Text
Duration : 51 min 33 s
Bit rate : 41 b/s
Count of elements : 518
Stream size : 15.6 KiB (0%)
Title : English [Full]
Language : English
Default : No
Forced : No

Text #2
ID : 4
Format : UTF-8
Codec ID : S_TEXT/UTF8
Codec ID/Info : UTF-8 Plain Text
Duration : 51 min 36 s
Bit rate : 48 b/s
Count of elements : 626
Stream size : 18.3 KiB (0%)
Title : English [SDH]
Language : English
Default : No
Forced : No

Text #3
ID : 5
Format : UTF-8
Codec ID : S_TEXT/UTF8
Codec ID/Info : UTF-8 Plain Text
Duration : 55 min 33 s
Bit rate : 42 b/s
Count of elements : 544
Stream size : 17.1 KiB (0%)
Title : Castilian [Full]
Language : Spanish
Default : No
Forced : No

Text #4
ID : 6
Format : UTF-8
Codec ID : S_TEXT/UTF8
Codec ID/Info : UTF-8 Plain Text
Duration : 55 min 33 s
Bit rate : 39 b/s
Count of elements : 545
Stream size : 16.2 KiB (0%)
Title : Spanish [Full]
Language : Spanish
Default : No
Forced : No

Text #5
ID : 7
Format : UTF-8
Codec ID : S_TEXT/UTF8
Codec ID/Info : UTF-8 Plain Text
Duration : 55 min 33 s
Bit rate : 44 b/s
Count of elements : 545
Stream size : 18.1 KiB (0%)
Title : French [Full]
Language : French
Default : No
Forced : No

Text #6
ID : 8
Format : UTF-8
Codec ID : S_TEXT/UTF8
Codec ID/Info : UTF-8 Plain Text
Duration : 55 min 33 s
Bit rate : 40 b/s
Count of elements : 545
Stream size : 16.4 KiB (0%)
Title : German [Full]
Language : German
Default : No
Forced : No

Text #7
ID : 9
Format : UTF-8
Codec ID : S_TEXT/UTF8
Codec ID/Info : UTF-8 Plain Text
Duration : 55 min 33 s
Bit rate : 39 b/s
Count of elements : 545
Stream size : 16.2 KiB (0%)
Title : Italian [Full]
Language : Italian
Default : No
Forced : No

Text #8
ID : 10
Format : UTF-8
Codec ID : S_TEXT/UTF8
Codec ID/Info : UTF-8 Plain Text
Duration : 55 min 33 s
Bit rate : 40 b/s
Count of elements : 545
Stream size : 16.7 KiB (0%)
Title : Portuguese [Full]
Language : Portuguese
Default : No
Forced : No

Text #9
ID : 11
Format : UTF-8
Codec ID : S_TEXT/UTF8
Codec ID/Info : UTF-8 Plain Text
Duration : 55 min 33 s
Bit rate : 40 b/s
Count of elements : 545
Stream size : 16.6 KiB (0%)
Title : Brazilian Portuguese [Full]
Language : Portuguese
Default : No
Forced : No

Text #10
ID : 12
Format : UTF-8
Codec ID : S_TEXT/UTF8
Codec ID/Info : UTF-8 Plain Text
Duration : 45 min 8 s
Bit rate : 2 b/s
Count of elements : 26
Stream size : 944 Bytes (0%)
Title : Polish [Forced]
Language : Polish
Default : No
Forced : Yes

Text #11
ID : 13
Format : UTF-8
Codec ID : S_TEXT/UTF8
Codec ID/Info : UTF-8 Plain Text
Duration : 51 min 27 s
Bit rate : 53 b/s
Count of elements : 616
Stream size : 20.3 KiB (0%)
Title : Polish [SDH]
Language : Polish
Default : No
Forced : No

Text #12
ID : 14
Format : UTF-8
Codec ID : S_TEXT/UTF8
Codec ID/Info : UTF-8 Plain Text
Duration : 55 min 33 s
Bit rate : 42 b/s
Count of elements : 544
Stream size : 17.2 KiB (0%)
Title : Turkish [Full]
Language : Turkish
Default : No
Forced : No

Text #13
ID : 15
Format : UTF-8
Codec ID : S_TEXT/UTF8
Codec ID/Info : UTF-8 Plain Text
Duration : 55 min 33 s
Bit rate : 39 b/s
Count of elements : 485
Stream size : 16.0 KiB (0%)
Title : Swedish [Full]
Language : Swedish
Default : No
Forced : No

Text #14
ID : 16
Format : UTF-8
Codec ID : S_TEXT/UTF8
Codec ID/Info : UTF-8 Plain Text
Duration : 55 min 33 s
Bit rate : 38 b/s
Count of elements : 491
Stream size : 15.8 KiB (0%)
Title : Danish [Full]
Language : Danish
Default : No
Forced : No

Text #15
ID : 17
Format : UTF-8
Codec ID : S_TEXT/UTF8
Codec ID/Info : UTF-8 Plain Text
Duration : 55 min 33 s
Bit rate : 41 b/s
Count of elements : 491
Stream size : 17.0 KiB (0%)
Title : Finnish [Full]
Language : Finnish
Default : No
Forced : No

Text #16
ID : 18
Format : UTF-8
Codec ID : S_TEXT/UTF8
Codec ID/Info : UTF-8 Plain Text
Duration : 55 min 33 s
Bit rate : 42 b/s
Count of elements : 534
Stream size : 17.1 KiB (0%)
Title : Dutch [Full]
Language : Dutch
Default : No
Forced : No

Text #17
ID : 19
Format : UTF-8
Codec ID : S_TEXT/UTF8
Codec ID/Info : UTF-8 Plain Text
Duration : 55 min 33 s
Bit rate : 41 b/s
Count of elements : 491
Stream size : 16.9 KiB (0%)
Title : Norwegian [Full]
Language : Norwegian
Default : No
Forced : No

Text #18
ID : 20
Format : UTF-8
Codec ID : S_TEXT/UTF8
Codec ID/Info : UTF-8 Plain Text
Duration : 55 min 33 s
Bit rate : 66 b/s
Count of elements : 544
Stream size : 27.2 KiB (0%)
Title : Russian [Full]
Language : Russian
Default : No
Forced : No

Text #19
ID : 21
Format : UTF-8
Codec ID : S_TEXT/UTF8
Codec ID/Info : UTF-8 Plain Text
Duration : 55 min 33 s
Bit rate : 65 b/s
Count of elements : 540
Stream size : 26.7 KiB (0%)
Title : Bulgarian [Full]
Language : Bulgarian
Default : No
Forced : No

Text #20
ID : 22
Format : UTF-8
Codec ID : S_TEXT/UTF8
Codec ID/Info : UTF-8 Plain Text
Duration : 51 min 40 s
Bit rate : 79 b/s
Count of elements : 544
Stream size : 30.1 KiB (0%)
Title : Greek [Full]
Language : Greek
Default : No
Forced : No

Text #21
ID : 23
Format : UTF-8
Codec ID : S_TEXT/UTF8
Codec ID/Info : UTF-8 Plain Text
Duration : 51 min 40 s
Bit rate : 61 b/s
Count of elements : 538
Stream size : 23.2 KiB (0%)
Title : Hebrew [Full]
Language : Hebrew
Default : No
Forced : No

Text #22
ID : 24
Format : UTF-8
Codec ID : S_TEXT/UTF8
Codec ID/Info : UTF-8 Plain Text
Duration : 51 min 33 s
Bit rate : 66 b/s
Count of elements : 544
Stream size : 25.0 KiB (0%)
Title : Arabic [Full]
Language : Arabic
Default : No
Forced : No

Text #23
ID : 25
Format : UTF-8
Codec ID : S_TEXT/UTF8
Codec ID/Info : UTF-8 Plain Text
Duration : 51 min 33 s
Bit rate : 53 b/s
Count of elements : 544
Stream size : 20.1 KiB (0%)
Title : Romanian [Full]
Language : Romanian
Default : No
Forced : No

Text #24
ID : 26
Format : UTF-8
Codec ID : S_TEXT/UTF8
Codec ID/Info : UTF-8 Plain Text
Duration : 55 min 33 s
Bit rate : 40 b/s
Count of elements : 545
Stream size : 16.6 KiB (0%)
Title : Indonesian [Full]
Language : Indonesian
Default : No
Forced : No

Text #25
ID : 27
Format : UTF-8
Codec ID : S_TEXT/UTF8
Codec ID/Info : UTF-8 Plain Text
Duration : 51 min 25 s
Bit rate : 118 b/s
Count of elements : 542
Stream size : 44.6 KiB (0%)
Title : Thai [Full]
Language : Thai
Default : No
Forced : No

Text #26
ID : 28
Format : UTF-8
Codec ID : S_TEXT/UTF8
Codec ID/Info : UTF-8 Plain Text
Duration : 55 min 33 s
Bit rate : 56 b/s
Count of elements : 544
Stream size : 23.0 KiB (0%)
Title : Korean [Full]
Language : Korean
Default : No
Forced : No

Text #27
ID : 29
Format : UTF-8
Codec ID : S_TEXT/UTF8
Codec ID/Info : UTF-8 Plain Text
Duration : 51 min 33 s
Bit rate : 49 b/s
Count of elements : 544
Stream size : 18.5 KiB (0%)
Title : Chinese (Simplified) [Full]
Language : Chinese
Default : No
Forced : No

Text #28
ID : 30
Format : UTF-8
Codec ID : S_TEXT/UTF8
Codec ID/Info : UTF-8 Plain Text
Duration : 51 min 33 s
Bit rate : 49 b/s
Count of elements : 544
Stream size : 18.6 KiB (0%)
Title : Chinese (Traditional) [Full]
Language : Chinese
Default : No
Forced : No

Text #29
ID : 31
Format : UTF-8
Codec ID : S_TEXT/UTF8
Codec ID/Info : UTF-8 Plain Text
Duration : 51 min 33 s
Bit rate : 49 b/s
Count of elements : 531
Stream size : 18.6 KiB (0%)
Title : Japanese [Full]
Language : Japanese
Default : No
Forced : No



2 个附件 售价 大小 下载 时间

1983.S01.POLISH.720p.NF.WEBRip.DDP5.1.x264-MZABI[btbtt.me].torrent 0 金币 59.38K 2030 次 9月前

1983.S01.POLISH.1080p.NF.WEBRip.DDP5.1.x264-MZABI[btbtt.me].torrent 0 金币 93.19K 2338 次 9月前

#1楼
发帖时间:2018-11-30 17:33:54   |   回复数:2
二月妙
一派掌门

波兰1983的啊,好

9月前 #2楼
911degrees
隐世仙人♂
非常感谢,谢谢分享
9月前 #3楼
游客组