呆呆狐狸
隐世仙人♂

[合 集] [美国] [历史] [打包] [BT下载][风中的女王/女王心计/Reign 第一至四季][全04季打包][英语无字][MKV][720P][片源]

-->


◎译  名 风中的女王 / 女王 / 女王心计

◎片  名 Reign Season 1

◎年  代 2013

◎产  地 美国

◎类  别 剧情 / 奇幻

◎语  言 英语

◎上映日期 2013-10-17(美国)

◎IMDb评分 7.5/10 from 38075 users

◎IMDb链接 http://www.imdb.com/title/tt2710394

◎豆瓣评分 7.2/10 from 7777 users

◎豆瓣链接 https://movie.douban.com/subject/22614647/

◎BT之家整理 http://www.btbtt.us/

◎片  长 40分钟

◎导  演 布拉德·塞伯宁 Brad Silberling / 马修·海斯廷斯 Matthew Hastings

◎编  剧 Laurie McCarthy

◎主  演 Adelaide Kane

      凯特琳·斯塔西 Caitlin Stasey

      安娜·帕波维尔 Anna Popplewell

      梅根·佛洛斯 Megan Follows

      艾伦·范·斯普朗 Alan Van Sprang

      Celina Sinden

      Jenessa Grant

      托伦斯·库姆斯 Torrance Coombs

      托比·瑞格波 Toby Regbo




◎简  介  


  该剧描述了16世纪苏格兰女王玛丽·斯图亚特(Adelaide Kane)的故事——她出生六天后即位苏格兰女王。由于她的母亲是法国人,所以她的童年和少女时代大都在法国渡过。本剧称玛丽15岁才来到法国,百度百科的资料显示她于1548年5岁的时候被送到法国,在法国宫廷里度过了10年的童年时光。1558年,不满16岁的玛丽同法国王太子弗朗西斯(Toby Regbo)结婚。1559年弗朗西斯即位法国国王,但一年后便去世了。18岁的少女寡妇玛丽于1561年返回苏格兰亲政。因为信仰天主教,玛丽为苏格兰贵族和加尔文教徒所不满。1567年被废黜,次年逃入英格兰,一直被英格兰女王、她的表亲伊丽莎白软禁。1587年,玛丽被伊利莎白一世以谋反罪名押上断头台。

在本剧中,玛丽被描述成一个会骑马舞剑、充满叛逆精神的坚强少女。剧情保留了历史上的「四玛丽」(即四个和她相同年纪都叫玛丽的宫廷女侍,她们分别来自苏格兰四个显贵家族:Beaton、Seaton、 Fleming 、林斯顿)。在强敌、黑暗力量和性丑闻笼罩的法国宫廷里,玛丽和她的好友将运用力量和智慧逃离是非之地,返回自己的祖国。


Video
ID : 1
Format : AVC
Format/Info : Advanced Video Codec
Format profile : [email protected]
Format settings : 2 Ref Frames
Format settings, CABAC : No
Format settings, ReFrames : 2 frames
Codec ID : V_MPEG4/ISO/AVC
Duration : 42 min 31 s
Bit rate : 4 133 kb/s
Width : 1 280 pixels
Height : 720 pixels
Display aspect ratio : 16:9
Frame rate mode : Constant
Frame rate : 23.976 (24000/1001) FPS
Color space : YUV
Chroma subsampling : 4:2:0
Bit depth : 8 bits
Scan type : Progressive
Bits/(Pixel*Frame) : 0.187
Stream size : 1.23 GiB (91%)
Language : English
Default : Yes
Forced : No
Color range : Limited
Color primaries : BT.709
Transfer characteristics : BT.709
Matrix coefficients : BT.709

Audio
ID : 2
Format : AC-3
Format/Info : Audio Coding 3
Commercial name : Dolby Digital
Codec ID : A_AC3
Duration : 42 min 32 s
Bit rate mode : Constant
Bit rate : 384 kb/s
Channel(s) : 6 channels
Channel layout : L R C LFE Ls Rs
Sampling rate : 48.0 kHz
Frame rate : 31.250 FPS (1536 SPF)
Bit depth : 16 bits
Compression mode : Lossy
Stream size : 117 MiB (8%)
Language : English
Service kind : Complete Main
Default : Yes
Forced : No

Text
ID : 3
Format : UTF-8
Codec ID : S_TEXT/UTF8
Codec ID/Info : UTF-8 Plain Text
Duration : 41 min 49 s
Bit rate : 136 b/s
Count of elements : 1046
Stream size : 41.7 KiB (0%)
Language : English
Default : Yes
Forced : No



4 个附件 售价 大小 下载 时间

Reign.S01.720p.WEB-DL.DD5.1.H264-BS[btbtt.me].torrent 0 金币 72.64K 896 次 2018-11-14

Reign.S02.720p.WEB-DL.DD5.1.H264-BS[btbtt.me].torrent 0 金币 72.87K 560 次 2018-11-14

Reign.S03.720p.HULU.WEBRip.AAC2.0.x264-.NTb[btbtt.me].torrent 0 金币 73.96K 599 次 2018-11-14

Reign.S04.720p.WEB-DL.DD5.1.H264-DRC[btbtt.me].torrent 0 金币 54.45K 763 次 2018-11-14

#1楼
发帖时间:2018-11-14 11:30:29   |   回复数:1
911degrees
隐世仙人♂
非常感谢,谢谢分享
2018-11-14 #2楼
游客组