conanlcg
超级版主

[2015] [其他] [剧情] [WEB-1080P] 昨日的果实 Seeds.of.Yesterday.2015.1080p.AMZN.WEBRip.DDP2.0.x264-ABM 4.47GB

-->

帖子完整标题:昨日的果实 Seeds.of.Yesterday.2015.1080p.AMZN.WEBRip.DDP2.0.x264-ABM 4.47GB




◎译  名 昨日的果实
◎片  名 Seeds of Yesterday
◎年  代 2015
◎产  地 加拿大
◎类  别 剧情
◎语  言 英语
◎上映日期 2015-04-12(美国)
◎IMDb评分 5.9/10 from 1517 users
◎IMDb链接 https://www.imdb.com/title/tt4103992
◎豆瓣评分 4.8/10 from 427 users
◎豆瓣链接 https://movie.douban.com/subject/26290236/
◎片  长 86分钟
◎导  演 古桑 Shawn Ku
◎编  剧 达伦·斯坦 Darren Stein / Virginia C. Andrews
◎主  演 赛米·汉拉缇 Sammi Hanratty
      詹森·刘易斯 Jason Lewis
      瑞秋·卡帕尼 Rachael Carpani
      Anthony Konechny
      Nikohl Boosheri
      Mark McConchie
      James Maslow


◎标  签 伦理 | 剧情 | 美国 | 人性 | 2015 | 小说改编 | 美国电影 | 电影

◎简  介

  It's the early 1990s in the continuing saga of the Dollanganger family. After undergoing psychiatric treatment in his teens following his encounter with his now deceased grandmother Corrine Foxworth, Bart Sheffield has become the sole heir of Corrine's estate. He has rebuilt Foxworth Manor where he is living, and has legally changed his last name from Sheffield to Foxworth. The estate is legally being managed by Bart's father, Christopher Sheffield, until Bart turns twenty-five as stipulated in Corrine's will. Bart brings together his entire family to celebrate his twenty-fifth birthday, at which time an extra clause in Corrine's will is to be read as per her instructions. The family includes: his parents Chris and Cathy Sheffield, whose incestuous relationship Bart is aware; his older brother and his wife, Jory and Melodie Marquet, who are both renowned ballet dancers; and his adopted younger teenaged sister, Cindy Sheffield, who is openly exploring her sexuality. Bart has pushed his family away since his psychiatric treatment, most specifically Chris, who, as not his biological parent, he no longer wants in his life, and Cindy, who he has never viewed as his sister and thus a member of the family. An incident at the birthday leads to the entire family needing to stay longer at Foxworth Manor. Bart has become religiously fanatical, much like his great-grandparents, Malcolm and Olivia Foxworth, who he secretly idolizes. The spirit of Malcolm lives through Bart, who tries to dictate what happens with and to his family, as he has a warped view of the female gender based on his parents' relationship, and as he reconciles his own animal urges against his/Malcolm's religious beliefs.
Video
ID : 1
Format : AVC
Format/Info : Advanced Video Codec
Format profile : [email protected]
Format settings : CABAC / 4 Ref Frames
Format settings, CABAC : Yes
Format settings, Reference frames : 4 frames
Codec ID : V_MPEG4/ISO/AVC
Duration : 1 h 27 min
Bit rate mode : Variable
Bit rate : 6 912 kb/s
Maximum bit rate : 15.0 Mb/s
Width : 1 920 pixels
Height : 1 080 pixels
Display aspect ratio : 16:9
Frame rate mode : Constant
Frame rate : 23.976 (24000/1001) FPS
Color space : YUV
Chroma subsampling : 4:2:0
Bit depth : 8 bits
Scan type : Progressive
Bits/(Pixel*Frame) : 0.139
Stream size : 4.25 GiB (95%)
Writing library : x264 core 148 r2623 d5b2374
Encoding settings : cabac=1 / ref=4 / deblock=1:-1:-1 / analyse=0x3:0x133 / me=umh / subme=9 / psy=1 / psy_rd=1.00:0.15 / mixed_ref=1 / me_range=24 / chroma_me=1 / trellis=2 / 8x8dct=1 / cqm=0 / deadzone=21,11 / fast_pskip=1 / chroma_qp_offset=-3 / threads=34 / lookahead_threads=5 / sliced_threads=0 / nr=150 / decimate=1 / interlaced=0 / bluray_compat=0 / constrained_intra=0 / bframes=8 / b_pyramid=2 / b_adapt=2 / b_bias=0 / direct=3 / weightb=1 / open_gop=0 / weightp=2 / keyint=120 / keyint_min=61 / scenecut=0 / intra_refresh=0 / rc_lookahead=120 / rc=crf / mbtree=1 / crf=18.0 / qcomp=0.60 / qpmin=0 / qpmax=69 / qpstep=4 / vbv_maxrate=15000 / vbv_bufsize=31250 / crf_max=0.0 / nal_hrd=vbr / filler=0 / ip_ratio=1.40 / aq=3:1.00
Language : English
Default : Yes
Forced : No
Color range : Limited
Color primaries : BT.709
Transfer characteristics : BT.709
Matrix coefficients : BT.709

Audio
ID : 2
Format : E-AC-3
Format/Info : Enhanced AC-3
Commercial name : Dolby Digital Plus
Codec ID : A_EAC3
Duration : 1 h 27 min
Bit rate mode : Constant
Bit rate : 224 kb/s
Channel(s) : 2 channels
Channel layout : L R
Sampling rate : 48.0 kHz
Frame rate : 31.250 FPS (1536 SPF)
Compression mode : Lossy
Stream size : 141 MiB (3%)
Language : English
Service kind : Complete Main
Default : Yes
Forced : No

Text
ID : 3
Format : UTF-8
Codec ID : S_TEXT/UTF8
Codec ID/Info : UTF-8 Plain Text
Language : English
Default : No
Forced : No





1 个附件 售价 大小 下载 时间

Seeds.of.Yesterday.2015.1080p.AMZN.WEBRip.DDP2.0.x264-ABM.torrent 0 金币 89.99K 161 次 18天前

#1楼
发帖时间:2019-11-17 08:07:30   |   回复数:1
911degrees
隐世仙人♂
非常感谢,谢谢分享
18天前 #2楼
游客组