conanlcg
超级版主

[2006] [其他] [剧情] [BD-1080P] 糖果/爱情毒针 Candy.2006.LIMITED.INTERNAL.1080p.BluRay.x264-ASSOCiATE 11.76GB

-->

帖子完整标题:糖果/爱情毒针 Candy.2006.LIMITED.INTERNAL.1080p.BluRay.x264-ASSOCiATE 11.76GB




◎译  名 糖果 / 爱情毒针 / 迷幻甜心
◎片  名 Candy
◎年  代 2006
◎产  地 澳大利亚
◎类  别 剧情 / 爱情
◎语  言 英语
◎上映日期 2006-05-23
◎IMDb评分 7.3/10 from 41338 users
◎IMDb链接 https://www.imdb.com/title/tt0424880
◎豆瓣评分 7.6/10 from 5351 users
◎豆瓣链接 https://movie.douban.com/subject/1499796/
◎片  长 Australia: 116 分钟
◎导  演 尼尔·尼尔阿姆菲尔德 Neil Armfield
◎编  剧 尼尔·尼尔阿姆菲尔德 Neil Armfield
◎主  演 Heath Ledger
      Geoffrey Rush
      Abbie Cornish


◎标  签 澳大利亚 | 爱情 | HeathLedger | 毒品 | 青春 | 希斯·莱杰 | 2006 | 澳大利亚电影

◎简  介

  丹(希斯?莱杰 饰)与美丽的糖果(艾比?考尼什 饰)相爱了。两人在一起之后一起出游,他们相处的时光充满了爱意。可是糖果是个吸毒者,她喜欢吸食海洛因,而且她还让男友丹一起吸食。他们利用吸毒后的极度兴奋的状态,企图为生活带来更多刺激。
  即使糖果的父母指责丹没有把他们的女儿从毒海中营救出来,甚至与她一起泥足深陷。其实他们有尝试戒除毒瘾,可是他们又受到了丹的同性恋朋友卡斯珀(杰弗里?拉什 饰)的影响,毒瘾越来越大,生活变得越来越堕落……

◎获奖情况

  第56届柏林国际电影节(2006)
  金熊奖 最佳影片(提名) 尼尔·阿姆菲尔德
Video
ID : 1
Format : AVC
Format/Info : Advanced Video Codec
Format profile : [email protected]
Format settings : CABAC / 4 Ref Frames
Format settings, CABAC : Yes
Format settings, Reference frames : 4 frames
Codec ID : V_MPEG4/ISO/AVC
Duration : 1 h 47 min
Bit rate : 15.1 Mb/s
Width : 1 920 pixels
Height : 1 040 pixels
Display aspect ratio : 1.85:1
Frame rate mode : Constant
Frame rate : 24.000 FPS
Color space : YUV
Chroma subsampling : 4:2:0
Bit depth : 8 bits
Scan type : Progressive
Bits/(Pixel*Frame) : 0.314
Stream size : 11.3 GiB (96%)
Writing library : x264 core 158 r2988 7817004
Encoding settings : cabac=1 / ref=4 / deblock=1:-3:-3 / analyse=0x3:0x133 / me=umh / subme=10 / psy=1 / psy_rd=1.00:0.15 / mixed_ref=1 / me_range=24 / chroma_me=1 / trellis=2 / 8x8dct=1 / cqm=0 / deadzone=21,11 / fast_pskip=1 / chroma_qp_offset=-3 / threads=6 / lookahead_threads=1 / sliced_threads=0 / nr=0 / decimate=1 / interlaced=0 / bluray_compat=0 / constrained_intra=0 / bframes=8 / b_pyramid=2 / b_adapt=2 / b_bias=0 / direct=3 / weightb=1 / open_gop=0 / weightp=2 / keyint=250 / keyint_min=24 / scenecut=40 / intra_refresh=0 / rc_lookahead=60 / rc=crf / mbtree=1 / crf=18.0 / qcomp=0.60 / qpmin=0 / qpmax=69 / qpstep=4 / vbv_maxrate=17500 / vbv_bufsize=17500 / crf_max=0.0 / nal_hrd=none / filler=0 / ip_ratio=1.40 / aq=1:1.00
Default : Yes
Forced : No
Color range : Limited
Matrix coefficients : BT.709

Audio
ID : 2
Format : FLAC
Format/Info : Free Lossless Audio Codec
Codec ID : A_FLAC
Duration : 1 h 52 min
Bit rate mode : Variable
Bit rate : 530 kb/s
Channel(s) : 2 channels
Channel layout : L R
Sampling rate : 48.0 kHz
Frame rate : 10.417 FPS (4608 SPF)
Bit depth : 16 bits
Compression mode : Lossless
Stream size : 425 MiB (4%)
Writing library : Lavf58.29.100
Language : English
Default : Yes
Forced : No

Menu
00:00:00.000 : :Chapter 01
00:03:23.125 : :Chapter 02
00:06:37.958 : :Chapter 03
00:12:08.250 : :Chapter 04
00:20:05.542 : :Chapter 05
00:28:00.042 : :Chapter 06
00:35:58.667 : :Chapter 07
00:40:55.458 : :Chapter 08
00:49:02.708 : :Chapter 09
00:52:44.417 : :Chapter 10
00:59:32.458 : :Chapter 11
01:05:07.500 : :Chapter 12
01:14:36.958 : :Chapter 13
01:22:07.208 : :Chapter 14
01:28:46.250 : :Chapter 15
01:34:50.542 : :Chapter 16
01:41:53.417 : :Chapter 17





1 个附件 售价 大小 下载 时间

Candy.2006.LIMITED.INTERNAL.1080p.BluRay.x264-ASSOCiATE.torrent 0 金币 59.47K 406 次 22天前

#1楼
发帖时间:2019-11-17 02:16:36   |   回复数:1
911degrees
隐世仙人♂
非常感谢,谢谢分享
21天前 #2楼
游客组