conanlcg
超级版主

[2015] [日本] [喜剧] [BD-1080P] Love Live! 剧场版/Love Live! 学园偶像 Love.Live.The.School.Idol.Movie.2015.JAPANESE.108

-->

帖子完整标题:Love Live! 剧场版/Love Live! 学园偶像 Love.Live.The.School.Idol.Movie.2015.JAPANESE.1080p.BluRay.x264.DTS-FGT 10.08GB




◎译  名 Love Live! 剧场版 / Love Live! 学园偶像 / ラブライブ!The School Idol Movie
◎片  名 ラブライブ! The School Idol Movie
◎年  代 2015
◎产  地 日本
◎类  别 喜剧 / 动画 / 音乐 / 歌舞
◎语  言 日语
◎上映日期 2015-06-13(日本)
◎IMDb评分 7.1/10 from 413 users
◎IMDb链接 https://www.imdb.com/title/tt3837248
◎豆瓣评分 8.4/10 from 1705 users
◎豆瓣链接 https://movie.douban.com/subject/25917756/
◎片  长 100分钟
◎导  演 京极尚彦 Takahiko Kyogoku
◎编  剧 花田十辉 Jukki Hanada
◎主  演 新田恵海 Emi Nitta
      南条爱乃 Yoshino Nanjo
      内田彩 Aya Uchida
      三森铃子 Suzuko Mimori
      饭田里穗 Riho Iida
      堀绘梨子 Pile
      楠田亚衣奈 Aina Kusuda
      久保由利香 Yurika Kubo
      德井青空 Dokui Sora
      东山奈央 Nao Toyama
      佐仓绫音 Ayane Sakura
      浅野真澄 Masumi Asano
      日高法子 Noriko Hidaka
      井上喜久子 Kikuko Inoue
      三石琴乃 Kotono Mitsuishi
      三宅麻理惠 Marie Miyake
      山本希望 Nozomi Yamamoto
      原纱友里 Sayuri Hara
      樱川惠 Sakuragawa Megu
      松永真穗
      大桥步夕 Ayuru Ohashi
      高森奈津美 Natsumi Takamori
      麦穗安娜
      雨宫天 Sora Amamiya
      茜屋日海夏 Himika Akaneya
      麻仓桃 Momo Asakura
      濑户麻沙美 Asami Seto
      小松未可子 Mikako Komatsu
      种田梨沙 Risa Taneda
      加隈亚衣 Ai Kakuma
      木村珠莉 Juri Kimura
      田中真奈美 Manami Tanaka
      朝井彩加 Ayaka Asai
      东城日沙子 Hisako Tojo
      竹内惠美子
      芳野由奈 Yuna Yoshino
      饭田友子 Iida Yuuko
      山崎遥 Yamazaki Haruka
      中里望
      高桥未奈美 Minami Takahashi
      永田绘美
      森永千才 Chitose Morinaga
      阿部里果 Abe Rika
      榎吉麻弥
      池边百花
      恋水结衣
      松宫可奈
      唐泽由衣
      福冈谅
      夏怜
      高山南 Minami Takayama


◎标  签 剧场版 | 日本 | 动画 | 日本动画 | 二次元 | 2015 | 劇場版 | LoveLive!

◎简  介

  漫画やテレビアニメなど様々にメディア展開される大人気ユーザー参加型アイドルプロジェクト“ラブライブ!“の劇場版アニメーション。国立音ノ木坂学院の廃校の危機を救うため、9人の女子生徒で結成されたスクールアイドルグループ“μ’s(ミューズ)“の新たな活躍を描く。アニメの1期、2期ともに監督を務めた京極尚彦がメガホンを執る。

◎获奖情况

  第39届日本电影学院奖(2016)
  最佳动画片(提名)
Video
ID : 1
Format : AVC
Format/Info : Advanced Video Codec
Format profile : [email protected]
Format settings : CABAC / 4 Ref Frames
Format settings, CABAC : Yes
Format settings, Reference frames : 4 frames
Codec ID : V_MPEG4/ISO/AVC
Duration : 1 h 39 min
Bit rate : 11.5 Mb/s
Width : 1 920 pixels
Height : 1 080 pixels
Display aspect ratio : 16:9
Frame rate mode : Constant
Frame rate : 23.976 (24000/1001) FPS
Color space : YUV
Chroma subsampling : 4:2:0
Bit depth : 8 bits
Scan type : Progressive
Bits/(Pixel*Frame) : 0.231
Stream size : 7.98 GiB (79%)
Title : Love.Live.The.School.Idol.Movie.2015.JAPANESE.1080p.BluRay.x264.DTS-FGT
Writing library : x264 core 148 r2748 97eaef2
Encoding settings : cabac=1 / ref=4 / deblock=1:1:1 / analyse=0x3:0x113 / me=umh / subme=8 / psy=1 / psy_rd=0.50:0.00 / mixed_ref=1 / me_range=32 / chroma_me=1 / trellis=2 / 8x8dct=1 / cqm=0 / deadzone=21,11 / fast_pskip=1 / chroma_qp_offset=-2 / threads=34 / lookahead_threads=3 / sliced_threads=0 / nr=0 / decimate=1 / interlaced=0 / bluray_compat=0 / constrained_intra=0 / bframes=3 / b_pyramid=2 / b_adapt=1 / b_bias=0 / direct=3 / weightb=1 / open_gop=0 / weightp=2 / keyint=240 / keyint_min=24 / scenecut=40 / intra_refresh=0 / rc_lookahead=50 / rc=2pass / mbtree=1 / bitrate=11500 / ratetol=1.0 / qcomp=0.60 / qpmin=0 / qpmax=69 / qpstep=4 / cplxblur=20.0 / qblur=0.5 / vbv_maxrate=31250 / vbv_bufsize=31250 / nal_hrd=none / filler=0 / ip_ratio=1.40 / aq=3:0.60
Default : Yes
Forced : No

Audio #1
ID : 2
Format : DTS
Format/Info : Digital Theater Systems
Codec ID : A_DTS
Duration : 1 h 39 min
Bit rate mode : Constant
Bit rate : 1 509 kb/s
Channel(s) : 6 channels
Channel layout : C L R Ls Rs LFE
Sampling rate : 48.0 kHz
Frame rate : 93.750 FPS (512 SPF)
Bit depth : 24 bits
Compression mode : Lossy
Stream size : 1.05 GiB (10%)
Title : Love.Live.The.School.Idol.Movie.2015.JAPANESE.1080p.BluRay.x264.DTS-FGT
Language : Japanese
Default : Yes
Forced : No

Audio #2
ID : 3
Format : DTS
Format/Info : Digital Theater Systems
Codec ID : A_DTS
Duration : 1 h 39 min
Bit rate mode : Constant
Bit rate : 1 509 kb/s
Channel(s) : 6 channels
Channel layout : C L R Ls Rs LFE
Sampling rate : 48.0 kHz
Frame rate : 93.750 FPS (512 SPF)
Bit depth : 24 bits
Compression mode : Lossy
Stream size : 1.05 GiB (10%)
Title : Love.Live.The.School.Idol.Movie.2015.JAPANESE.1080p.BluRay.x264.DTS-FGT
Language : English
Default : No
Forced : No

Text
ID : 4
Format : UTF-8
Codec ID : S_TEXT/UTF8
Codec ID/Info : UTF-8 Plain Text
Duration : 1 h 38 min
Bit rate : 59 b/s
Count of elements : 1437
Stream size : 43.2 KiB (0%)
Language : English
Default : Yes
Forced : No

Menu
00:00:00.000 : en:Chapter 01
00:00:24.858 : en:Chapter 02
00:03:38.009 : en:Chapter 03
00:05:31.206 : en:Chapter 04
00:18:42.455 : en:Chapter 05
00:22:41.861 : en:Chapter 06
00:35:16.906 : en:Chapter 07
00:37:38.882 : en:Chapter 08
00:43:32.235 : en:Chapter 09
00:51:07.314 : en:Chapter 10
01:06:03.668 : en:Chapter 11
01:11:47.261 : en:Chapter 12
01:21:15.579 : en:Chapter 13
01:26:50.038 : en:Chapter 14
01:34:11.229 : en:Chapter 15





1 个附件 售价 大小 下载 时间

Love.Live.The.School.Idol.Movie.2015.JAPANESE.1080p.BluRay.x264.DTS-FGT.torrent 0 金币 50.99K 252 次 19天前

#1楼
发帖时间:2019-11-16 22:29:51   |   回复数:1
911degrees
隐世仙人♂
非常感谢,谢谢分享
19天前 #2楼
游客组