conanlcg
超级版主

[2015] [其他] [剧情] [BD-1080P] 沉睡的巨人 Sleeping.Giant.2015.1080p.BluRay.x264-HANDJOB 7.44GB

-->

帖子完整标题:沉睡的巨人 Sleeping.Giant.2015.1080p.BluRay.x264-HANDJOB 7.44GB




◎译  名 沉睡的巨人 / Mean Free Path
◎片  名 Sleeping Giant
◎年  代 2015
◎产  地 加拿大
◎类  别 剧情 / 冒险
◎语  言 英语
◎上映日期 2015-05-14(戛纳电影节) / 2016-04-08(加拿大)
◎IMDb评分 6.7/10 from 1472 users
◎IMDb链接 http://www.imdb.com/title/tt3778086
◎豆瓣评分 6.2/10 from 564 users
◎豆瓣链接 https://movie.douban.com/subject/26371550/
◎片  长 89分钟
◎导  演 安德鲁·奇维迪诺 Andrew Cividino
◎编  剧 安德鲁·奇维迪诺 Andrew Cividino / 布莱恩·沃特斯 Blain Watters / 亚伦·叶格尔 Aaron Yeger
◎主  演 杰克逊·马丁 Jackson Martin
      尼克·塞里诺 Nick Serino
      埃丽卡·布罗兹基 Erika Brodzky
      凯特琳·麦克拉彻 Katelyn McKerracher
      里斯·莫菲特 Reece Moffett


◎标  签 加拿大 | 青春 | 成长 | 2015 | 剧情 | 冒险 | 戛纳 | 独立影片

◎简  介

  少年亚当和他的父母一起在崎岖的苏必利尔湖度过暑假。他乏味的常规粉碎了当他和里利和伊北,自作聪明的表亲们通过他们有充裕的时间与放荡和鲁莽的悬崖跳。一个伤害的秘密的启示触发亚当设置不可逆的事件,测试友谊的纽带,永远改变男孩

◎获奖情况

  第68届戛纳电影节(2015)
  金摄影机奖(导演处女作奖)(提名) 安德鲁·奇维迪诺
  影评人周单元 影评人周单元大奖 (提名) 安德鲁·奇维迪诺

  第40届多伦多国际电影节(2015)
  最佳加拿大处女作 安德鲁·奇维迪诺



Video
ID : 1
Format : AVC
Format/Info : Advanced Video Codec
Format profile : [email protected]
Format settings : CABAC / 4 Ref Frames
Format settings, CABAC : Yes
Format settings, Reference frames : 4 frames
Codec ID : V_MPEG4/ISO/AVC
Duration : 1 h 30 min
Bit rate : 11.1 Mb/s
Width : 1 920 pixels
Height : 1 036 pixels
Display aspect ratio : 1.85:1
Frame rate mode : Constant
Frame rate : 23.976 (24000/1001) FPS
Color space : YUV
Chroma subsampling : 4:2:0
Bit depth : 8 bits
Scan type : Progressive
Bits/(Pixel*Frame) : 0.232
Stream size : 7.04 GiB (95%)
Writing library : x264 core 157
Encoding settings : cabac=1 / ref=4 / deblock=1:-3:-3 / analyse=0x3:0x133 / me=umh / subme=9 / psy=1 / psy_rd=1.00:0.00 / mixed_ref=1 / me_range=24 / chroma_me=1 / trellis=2 / 8x8dct=1 / cqm=0 / deadzone=21,11 / fast_pskip=0 / chroma_qp_offset=-2 / threads=18 / lookahead_threads=2 / sliced_threads=0 / nr=0 / decimate=1 / interlaced=0 / bluray_compat=0 / constrained_intra=0 / bframes=5 / b_pyramid=2 / b_adapt=2 / b_bias=0 / direct=3 / weightb=1 / open_gop=0 / weightp=2 / keyint=240 / keyint_min=24 / scenecut=40 / intra_refresh=0 / rc_lookahead=50 / rc=crf / mbtree=0 / crf=16.0 / qcomp=0.60 / qpmin=0 / qpmax=69 / qpstep=4 / vbv_maxrate=62500 / vbv_bufsize=78125 / crf_max=0.0 / nal_hrd=none / filler=0 / ip_ratio=1.40 / pb_ratio=1.30 / aq=2:1.00
Default : Yes
Forced : No
Color range : Limited
Color primaries : BT.709
Transfer characteristics : BT.709
Matrix coefficients : BT.709

Audio
ID : 2
Format : AC-3
Format/Info : Audio Coding 3
Commercial name : Dolby Digital
Codec ID : A_AC3
Duration : 1 h 30 min
Bit rate mode : Constant
Bit rate : 640 kb/s
Channel(s) : 6 channels
Channel layout : L R C LFE Ls Rs
Sampling rate : 48.0 kHz
Frame rate : 31.250 FPS (1536 SPF)
Bit depth : 16 bits
Compression mode : Lossy
Stream size : 417 MiB (5%)
Language : English
Service kind : Complete Main
Default : Yes
Forced : No

Menu
00:00:00.000 : :Chapter 1
00:10:22.497 : :Chapter 2
00:22:04.323 : :Chapter 3
00:34:03.792 : :Chapter 4
00:46:05.304 : :Chapter 5
00:56:53.285 : :Chapter 6
01:09:01.012 : :Chapter 7
01:18:56.357 : :Chapter 8





1 个附件 售价 大小 下载 时间

Sleeping.Giant.2015.1080p.BluRay.x264-HANDJOB.torrent 0 金币 37.74K 217 次 1月前

#1楼
发帖时间:2019-11-04 03:30:56   |   回复数:2
911degrees
隐世仙人♂
非常感谢,谢谢分享
1月前 #2楼
kola13
一派掌门
感谢分享
1月前 #3楼
游客组