conanlcg
超级版主

[2015] [欧美] [剧情] [WEB-1080P] 全新的你 Identicals.2015.1080p.WEB.H264-STRiFE 8.61GB

-->

帖子完整标题:全新的你 Identicals.2015.1080p.WEB.H264-STRiFE 8.61GB




◎译  名 全新的你 / Brand New-U / Identicals
◎片  名 Identicals
◎年  代 2015
◎产  地 英国
◎类  别 剧情
◎语  言 英语
◎上映日期 2016-03-25(美国)
◎IMDb评分 5.6/10 from 2568 users
◎IMDb链接 http://www.imdb.com/title/tt2544074
◎豆瓣评分 0/10 from 0 users
◎豆瓣链接 https://movie.douban.com/subject/24853096/
◎导  演 Simon Pummell
◎编  剧 Simon Pummell
◎主  演 托尼·威 Tony Way
      Nora-Jane Noone
      Lachlan Nieboer
      Nick Blood
      Clare Monnelly
      Sukie Smith


◎标  签 科幻 | 剧情 | 英国电影 | 英国 | 2015 | yyyy

◎简  介

  "There's a better life waiting for us. Who? Somebody else... Where? Somewhere else..." Brand New-U is a highly unconventional romantic thriller: an obsessive love story stripped down and re-arranged into the looping logic of a nightmare. It tells the story of a man - SLATER - who pursues the woman he loves - NADIA - through a series of parallel lives
Video
ID : 1
Format : AVC
Format/Info : Advanced Video Codec
Format profile : [email protected]
Format settings : CABAC / 4 Ref Frames
Format settings, CABAC : Yes
Format settings, Reference frames : 4 frames
Codec ID : V_MPEG4/ISO/AVC
Duration : 1 h 40 min
Bit rate mode : Variable
Bit rate : 11.7 Mb/s
Maximum bit rate : 15.0 Mb/s
Width : 1 920 pixels
Height : 1 080 pixels
Display aspect ratio : 16:9
Frame rate mode : Constant
Frame rate : 23.976 (24000/1001) FPS
Color space : YUV
Chroma subsampling : 4:2:0
Bit depth : 8 bits
Scan type : Progressive
Bits/(Pixel*Frame) : 0.234
Stream size : 8.16 GiB (95%)
Language : English
Default : Yes
Forced : No
Color range : Limited
Color primaries : BT.709
Transfer characteristics : BT.709
Matrix coefficients : BT.709

Audio
ID : 2
Format : E-AC-3
Format/Info : Enhanced AC-3
Commercial name : Dolby Digital Plus
Codec ID : A_EAC3
Duration : 1 h 40 min
Bit rate mode : Constant
Bit rate : 640 kb/s
Channel(s) : 6 channels
Channel layout : L R C LFE Ls Rs
Sampling rate : 48.0 kHz
Frame rate : 31.250 FPS (1536 SPF)
Compression mode : Lossy
Stream size : 459 MiB (5%)
Language : English
Service kind : Complete Main
Default : Yes
Forced : No

Text
ID : 3
Format : UTF-8
Codec ID : S_TEXT/UTF8
Codec ID/Info : UTF-8 Plain Text
Duration : 1 h 33 min
Bit rate : 36 b/s
Count of elements : 906
Stream size : 24.7 KiB (0%)
Language : English
Default : No
Forced : No





1 个附件 售价 大小 下载 时间

Identicals.2015.1080p.WEB.H264-STRiFE.torrent 0 金币 43.56K 203 次 25天前

#1楼
发帖时间:2019-09-18 23:14:23   |   回复数:2
liyouchai
隐世仙人♂
谢谢楼主分享资源
25天前 #2楼
911degrees
隐世仙人♂
非常感谢,谢谢分享
24天前 #3楼
游客组