conanlcg
超级版主

[2018] [其他] [动作] [WEB-1080P] 防暴女孩 Riot.Girls.2019.1080p.AMZN.WEBRip.DDP5.1.x264-NTG 4.83GB

-->

帖子完整标题:防暴女孩 Riot.Girls.2019.1080p.AMZN.WEBRip.DDP5.1.x264-NTG 4.83GB




◎译  名 防暴女孩
◎片  名 Riot Girls
◎年  代 2018
◎产  地 加拿大 Canada
◎类  别 动作 / 科幻
◎语  言 英语
◎IMDb评分 6.1/10 from 42 users
◎IMDb链接 http://www.imdb.com/title/tt6049106
◎豆瓣评分 0/10 from 0 users
◎豆瓣链接 https://movie.douban.com/subject/30151967/
◎导  演 乔宛卡·默克维克 Jovanka Vuckovic
◎编  剧 Katherine Collins
◎主  演 麦迪森·伊瑟曼 Madison Iseman
      帕洛玛·克维亚特科夫斯基 Paloma Kwiatkowski
      Munro Chambers


◎简  介

  A post-apocalyptic thriller set in an alternate 1995, where a mysterious disease has wiped out all of the adults. In this new age, two gangs are pitted against each other in a brutal war for territory, resources and survival.
Video
ID : 1
Format : AVC
Format/Info : Advanced Video Codec
Format profile : [email protected]
Format settings : CABAC / 4 Ref Frames
Format settings, CABAC : Yes
Format settings, Reference frames : 4 frames
Codec ID : V_MPEG4/ISO/AVC
Duration : 1 h 21 min
Bit rate mode : Constant
Bit rate : 7 784 kb/s
Nominal bit rate : 10 000 kb/s
Width : 1 920 pixels
Height : 800 pixels
Display aspect ratio : 2.40:1
Frame rate mode : Constant
Frame rate : 23.976 (24000/1001) FPS
Color space : YUV
Chroma subsampling : 4:2:0
Bit depth : 8 bits
Scan type : Progressive
Bits/(Pixel*Frame) : 0.211
Stream size : 4.46 GiB (92%)
Default : Yes
Forced : No
Color range : Limited
Color primaries : BT.709
Transfer characteristics : BT.709
Matrix coefficients : BT.709

Audio
ID : 2
Format : E-AC-3
Format/Info : Enhanced AC-3
Commercial name : Dolby Digital Plus
Codec ID : A_EAC3
Duration : 1 h 21 min
Bit rate mode : Constant
Bit rate : 640 kb/s
Channel(s) : 6 channels
Channel layout : L R C LFE Ls Rs
Sampling rate : 48.0 kHz
Frame rate : 31.250 FPS (1536 SPF)
Compression mode : Lossy
Stream size : 375 MiB (8%)
Language : English
Service kind : Complete Main
Default : Yes
Forced : No

Text #1
ID : 3
Format : UTF-8
Codec ID : S_TEXT/UTF8
Codec ID/Info : UTF-8 Plain Text
Duration : 1 h 19 min
Bit rate : 47 b/s
Count of elements : 1021
Stream size : 27.4 KiB (0%)
Language : English
Default : No
Forced : No

Text #2
ID : 4
Format : UTF-8
Codec ID : S_TEXT/UTF8
Codec ID/Info : UTF-8 Plain Text
Duration : 1 h 21 min
Bit rate : 49 b/s
Count of elements : 1198
Stream size : 29.7 KiB (0%)
Title : SDH
Language : English
Default : No
Forced : No





1 个附件 售价 大小 下载 时间

Riot.Girls.2019.1080p.AMZN.WEBRip.DDP5.1.x264-NTG.torrent 0 金币 48.80K 287 次 1月前

#1楼
发帖时间:2019-09-13 17:48:30   |   回复数:2
liyouchai
隐世仙人♂
谢谢楼主分享资源
1月前 #2楼
911degrees
隐世仙人♂
非常感谢,谢谢分享
1月前 #3楼
游客组