conanlcg
超级版主

[更 早] [欧美] [其他] [WEB-1080P] 推销员/社会中坚 Salesman.1969.1080p.AMZN.WEBRip.DDP2.0.x264-SbR 9.55GB

-->

帖子完整标题:推销员/社会中坚 Salesman.1969.1080p.AMZN.WEBRip.DDP2.0.x264-SbR 9.55GB




◎译  名 推销员 / 社会中坚
◎片  名 Salesman
◎年  代 1969
◎产  地 美国
◎类  别 纪录片
◎语  言 英语
◎上映日期 1969-04-17(美国)
◎IMDb评分 7.8/10 from 4245 users
◎IMDb链接 http://www.imdb.com/title/tt0064921
◎豆瓣评分 7.9/10 from 1354 users
◎豆瓣链接 https://movie.douban.com/subject/1395036/
◎片  长 85分钟
◎导  演 Albert Maysles / David Maysles / Charlotte Zwerin
◎主  演 Paul Brennan
      Charles McDevitt
      James Baker
      Raymond Martos


◎标  签 纪录片 | 美国 | 梅索斯兄弟 | 美国电影 | 1960s | Maysles | documentary | 紀錄片

◎简  介

  本片追踪四个“美中圣经公司”的销售代表在波士顿与佛罗里达销售区域工作的情形。保罗是本片的焦点,他挣扎于生存的两难境地,却一直充满乐观,运用各种或哄或骗的技巧来推销《圣经》。
Video
ID : 1
Format : AVC
Format/Info : Advanced Video Codec
Format profile : [email protected]
Format settings : CABAC / 4 Ref Frames
Format settings, CABAC : Yes
Format settings, Reference frames : 4 frames
Codec ID : V_MPEG4/ISO/AVC
Duration : 1 h 31 min
Bit rate mode : Variable
Bit rate : 14.8 Mb/s
Maximum bit rate : 15.0 Mb/s
Width : 1 440 pixels
Height : 1 080 pixels
Display aspect ratio : 4:3
Frame rate mode : Constant
Frame rate : 23.976 (24000/1001) FPS
Color space : YUV
Chroma subsampling : 4:2:0
Bit depth : 8 bits
Scan type : Progressive
Bits/(Pixel*Frame) : 0.396
Stream size : 9.41 GiB (98%)
Writing library : x264 core 148 r2623 d5b2374
Encoding settings : cabac=1 / ref=4 / deblock=1:-1:-1 / analyse=0x3:0x133 / me=umh / subme=9 / psy=1 / psy_rd=1.00:0.15 / mixed_ref=1 / me_range=24 / chroma_me=1 / trellis=2 / 8x8dct=1 / cqm=0 / deadzone=21,11 / fast_pskip=1 / chroma_qp_offset=-3 / threads=34 / lookahead_threads=5 / sliced_threads=0 / nr=150 / decimate=1 / interlaced=0 / bluray_compat=0 / constrained_intra=0 / bframes=8 / b_pyramid=2 / b_adapt=2 / b_bias=0 / direct=3 / weightb=1 / open_gop=0 / weightp=2 / keyint=120 / keyint_min=61 / scenecut=0 / intra_refresh=0 / rc_lookahead=120 / rc=crf / mbtree=1 / crf=18.0 / qcomp=0.60 / qpmin=0 / qpmax=69 / qpstep=4 / vbv_maxrate=15000 / vbv_bufsize=31250 / crf_max=0.0 / nal_hrd=vbr / filler=0 / ip_ratio=1.40 / aq=3:1.00
Language : English
Default : Yes
Forced : No
Color range : Limited
Color primaries : BT.709
Transfer characteristics : BT.709
Matrix coefficients : BT.709

Audio
ID : 2
Format : E-AC-3
Format/Info : Enhanced AC-3
Commercial name : Dolby Digital Plus
Codec ID : A_EAC3
Duration : 1 h 31 min
Bit rate mode : Constant
Bit rate : 224 kb/s
Channel(s) : 2 channels
Channel layout : L R
Sampling rate : 48.0 kHz
Frame rate : 31.250 FPS (1536 SPF)
Compression mode : Lossy
Stream size : 146 MiB (1%)
Language : English
Service kind : Complete Main
Default : Yes
Forced : No

Text #1
ID : 3
Format : UTF-8
Codec ID : S_TEXT/UTF8
Codec ID/Info : UTF-8 Plain Text
Duration : 1 h 30 min
Bit rate : 105 b/s
Count of elements : 1377
Stream size : 69.6 KiB (0%)
Language : English
Default : No
Forced : No

Text #2
ID : 4
Format : UTF-8
Codec ID : S_TEXT/UTF8
Codec ID/Info : UTF-8 Plain Text
Duration : 1 h 30 min
Bit rate : 109 b/s
Count of elements : 1443
Stream size : 72.5 KiB (0%)
Title : SDH
Language : English
Default : No
Forced : No

Menu
00:00:00.000 : en:01. \"The Best Seller in the World\"
00:05:12.040 : en:02. Sales Meeting
00:07:11.159 : en:03. Leads and Sales
00:14:34.635 : en:04. Humor Sells
00:18:07.214 : en:05. A Day\'s End
00:27:14.895 : en:06. Chicago
00:32:24.404 : en:07. Florida
00:38:08.748 : en:08. Role Playing
00:43:55.394 : en:09. Lost in Opa Locka
00:49:14.681 : en:10. Pep Talk
00:50:31.825 : en:11. The Rabbit
00:53:15.823 : en:12. The Bull
00:54:15.883 : en:13. The Gipper
00:58:06.815 : en:14. The Badger
01:02:24.639 : en:15. Questionable Tactics
01:03:49.658 : en:16. Homesick
01:06:20.942 : en:17. Paul Strikes Out
01:15:24.353 : en:18. Frustration
01:17:45.829 : en:19. Success and Failure
01:25:26.289 : en:20. The Gipper Assists
01:28:26.636 : en:21. Going Home





1 个附件 售价 大小 下载 时间

Salesman.1969.1080p.AMZN.WEBRip.DDP2.0.x264-SbR.torrent 0 金币 48.29K 224 次 1月前

#1楼
发帖时间:2019-09-13 17:46:42   |   回复数:2
liyouchai
隐世仙人♂
谢谢楼主分享资源
1月前 #2楼
911degrees
隐世仙人♂
非常感谢,谢谢分享
25天前 #3楼
游客组