conanlcg
超级版主

[2015] [欧美] [剧情] [WEB-1080P] 庇护所 Shelter.2015.1080p.AMZN.WEBRip.DDP2.0.x264-monkee 5.68GB

-->

帖子完整标题:庇护所 Shelter.2015.1080p.AMZN.WEBRip.DDP2.0.x264-monkee 5.68GB




◎译  名 庇护所
◎片  名 Shelter
◎年  代 2015
◎产  地 美国
◎类  别 剧情 / 科幻 / 惊悚
◎语  言 英语
◎IMDb评分 4.8/10 from 435 users
◎IMDb链接 http://www.imdb.com/title/tt2254131
◎豆瓣评分 0/10 from 0 users
◎豆瓣链接 https://movie.douban.com/subject/10537925/
◎导  演 Wrion Bowling / Adam C. Caudill
◎编  剧 Wrion Bowling / Adam C. Caudill
◎主  演 Joyce Hshieh
      Michael Lane
      Sarah Street


◎标  签 觀影2016 | America | 2015

◎简  介

  一个不祥的灾难迫使五名幸存者在一个秘密的地下防空洞里等待核的冬天。与有限的供应和无处可去,他们的斗争对时钟,不确定,如果他们会生存,直到它的安全返回的表面。几个星期几个月,一个房间证明了五个人的小。习惯凝结成常规,关系溶解,让疯狂的执着。
Video
ID : 1
Format : AVC
Format/Info : Advanced Video Codec
Format profile : [email protected]
Format settings : CABAC / 4 Ref Frames
Format settings, CABAC : Yes
Format settings, Reference frames : 4 frames
Codec ID : V_MPEG4/ISO/AVC
Duration : 1 h 31 min
Bit rate mode : Constant
Bit rate : 8 623 kb/s
Nominal bit rate : 10 000 kb/s
Width : 1 920 pixels
Height : 1 080 pixels
Display aspect ratio : 16:9
Frame rate mode : Constant
Frame rate : 23.976 (24000/1001) FPS
Color space : YUV
Chroma subsampling : 4:2:0
Bit depth : 8 bits
Scan type : Progressive
Bits/(Pixel*Frame) : 0.173
Stream size : 5.54 GiB (97%)
Default : Yes
Forced : No
Color range : Limited
Color primaries : BT.709
Transfer characteristics : BT.709
Matrix coefficients : BT.709

Audio
ID : 2
Format : E-AC-3
Format/Info : Enhanced AC-3
Commercial name : Dolby Digital Plus
Codec ID : A_EAC3
Duration : 1 h 31 min
Bit rate mode : Constant
Bit rate : 224 kb/s
Channel(s) : 2 channels
Channel layout : L R
Sampling rate : 48.0 kHz
Frame rate : 31.250 FPS (1536 SPF)
Compression mode : Lossy
Stream size : 147 MiB (3%)
Language : English
Service kind : Complete Main
Default : Yes
Forced : No

Text #1
ID : 3
Format : UTF-8
Codec ID : S_TEXT/UTF8
Codec ID/Info : UTF-8 Plain Text
Duration : 1 h 25 min
Bit rate : 45 b/s
Count of elements : 984
Stream size : 28.7 KiB (0%)
Language : English
Default : No
Forced : No

Text #2
ID : 4
Format : UTF-8
Codec ID : S_TEXT/UTF8
Codec ID/Info : UTF-8 Plain Text
Duration : 1 h 28 min
Bit rate : 45 b/s
Count of elements : 1045
Stream size : 29.7 KiB (0%)
Title : SDH
Language : English
Default : No
Forced : No





1 个附件 售价 大小 下载 时间

Shelter.2015.1080p.AMZN.WEBRip.DDP2.0.x264-monkee.torrent 0 金币 28.94K 245 次 1月前

#1楼
发帖时间:2019-09-13 17:42:31   |   回复数:2
liyouchai
隐世仙人♂
谢谢楼主分享资源
1月前 #2楼
911degrees
隐世仙人♂
非常感谢,谢谢分享
25天前 #3楼
游客组