conanlcg
超级版主

[2011] [欧美] [喜剧] [BD-4K] 赛车总动员2/3D反斗车王2 Cars.2.2011.2160p.BluRay.x265.10bit.SDR.TrueHD.7.1.Atmos-SWTYBLZ

-->

帖子完整标题:赛车总动员2/3D反斗车王2 Cars.2.2011.2160p.BluRay.x265.10bit.SDR.TrueHD.7.1.Atmos-SWTYBLZ 27.61GB




◎译  名 赛车总动员2 / 3D反斗车王2(港) / Cars2:世界大赛(台) / 小汽车的故事2 / 汽车总动员2 / 飞车正传2
◎片  名 Cars 2
◎年  代 2011
◎产  地 美国
◎类  别 喜剧 / 动画 / 冒险
◎语  言 英语 / 日语 / 意大利语 / 法语
◎上映日期 2011-06-24(美国) / 2011-08-24(中国大陆)
◎IMDb评分 6.2/10 from 142508 users
◎IMDb链接 http://www.imdb.com/title/tt1216475
◎豆瓣评分 7.6/10 from 64760 users
◎豆瓣链接 https://movie.douban.com/subject/3036478/
◎片  长 106分钟
◎导  演 约翰·拉塞特 John Lasseter / 布拉德·刘易斯 Brad Lewis
◎编  剧 约翰·拉塞特 John Lasseter / 布拉德·刘易斯 Brad Lewis / 丹·福格尔曼 Dan Fogelman / 本·奎因 Ben Queen
◎主  演 欧文·威尔逊 Owen Wilson
      王牌接线员拉里 Larry The Cable Guy
      迈克尔·凯恩 Michael Caine
      艾米莉·莫迪默 Emily Mortimer
      艾迪·伊扎德 Eddie Izzard
      约翰·特托罗 John Turturro
      布伦特·马斯伯格 Brent Musburger
      乔·曼特纳 Joe Mantegna
      托马斯·克莱舒曼 Thomas Kretschmann
      彼得·雅各布森 Peter Jacobson
      邦尼·亨特 Bonnie Hunt
      达雷尔·沃尔特里普 Darrell Waltrip
      弗兰科·尼罗 Franco Nero
      大卫·赫伯斯 David Hobbs
      托尼·夏尔赫布 Tony Shalhoub
      杰夫·格尔林 Jeff Garlin
      詹森·艾萨克 Jason Isaacs
      布鲁斯·坎贝尔 Bruce Campbell
      詹妮弗·路易斯 Jenifer Lewis
      斯坦利·汤森德 Stanley Townsend
      维利贝·托皮奇 Velibor Topic
      锡格·汉森 Sig Hansen
      盖多·克隆尼 Guido Quaroni
      瓦妮莎·雷德格瑞夫 Vanessa Redgrave
      布拉德·刘易斯 Brad Lewis
      切奇·马林 Cheech Marin
      保罗·杜利 Paul Dooley
      伊迪·迈克莱尔 Edie McClurg
      理查德·坎德 Richard Kind
      凯瑟琳·海蒙德 Katherine Helmond
      迈克尔·沃利斯 Michael Wallis


◎标  签 动画 | 美国 | 皮克斯 | 喜剧 | 2011 | 迪斯尼 | 3D | 冒险

◎简  介

  开发出新能源的迈尔斯伯爵召开世界杯赛车大奖赛,各路好手纷纷云集,独独缺了活塞杯霸主闪电麦昆(黄磊 配音)。原来他刚好回到温泉镇,与好哥们板牙(范伟 配音)、女友莎莉享受快乐的假期。由于意大利方程式赛车法拉斯·高的挑衅,当然也有吃醋的原因,麦昆最终同意参加世界杯,并带着板 牙等好友一同周游世界。在日本站比赛的前一天,板牙偶然结识了英国特工迈克飞弹和霍莉(姚晨 配音),他们正在追查一支犯罪团伙的新动向。板牙阴差阳错被霍莉当作美国来的接头特工,由此卷入了麻烦之中。在次日的比赛中,麦昆与法拉斯·高竞争激烈,与此同时不断有选手意外爆缸,板牙则撞见迈克和神秘组织火并的场面。
  因这一连串意外,麦昆和板牙的友情受到动摇,而这一切的幕后老板也渐渐露出真实面目……

◎获奖情况

  第69届金球奖(2012)
  电影类 最佳动画长片(提名)

  第39届动画安妮奖(2012)
  最佳动画长片(提名)
  最佳剪辑(提名) Stephen Schaffer
  最佳分镜(提名)
  最佳艺术指导(提名) 哈雷·杰斯普
  最佳角色设计(提名) Jay Shuster
  最佳动画效果(提名) Eric Froemling / Jon Reisch
Video
ID : 1
Format : HEVC
Format/Info : High Efficiency Video Coding
Format profile : Main [email protected]@High
Codec ID : V_MPEGH/ISO/HEVC
Duration : 1 h 46 min
Bit rate : 28.9 Mb/s
Width : 3 840 pixels
Height : 1 606 pixels
Display aspect ratio : 2.40:1
Frame rate mode : Constant
Frame rate : 23.976 (24000/1001) FPS
Color space : YUV
Chroma subsampling : 4:2:0
Bit depth : 10 bits
Bits/(Pixel*Frame) : 0.195
Stream size : 21.4 GiB (78%)
Title : Cars.2.2011.2160p.BluRay.x265.10bit.SDR.TrueHD.7.1.Atmos-SWTYBLZ
Writing library : x265 3.0_RC0614145ecaf2:[Windows][GCC 8.2.1][64 bit] 10bit
Encoding settings : cpuid=1111039 / frame-threads=16 / numa-pools=24,24,24,24 / wpp / no-pmode / no-pme / no-psnr / no-ssim / log-level=2 / input-csp=1 / input-res=3840x1606 / interlace=0 / total-frames=152851 / level-idc=51 / high-tier=1 / uhd-bd=0 / ref=3 / no-allow-non-conformance / repeat-headers / annexb / aud / hrd / info / hash=0 / no-temporal-layers / no-open-gop / min-keyint=1 / keyint=24 / gop-lookahead=0 / bframes=6 / b-adapt=2 / b-pyramid / bframe-bias=0 / rc-lookahead=25 / lookahead-slices=4 / scenecut=40 / radl=0 / no-splice / no-intra-refresh / ctu=64 / min-cu-size=8 / no-rect / no-amp / max-tu-size=32 / tu-inter-depth=1 / tu-intra-depth=1 / limit-tu=0 / rdoq-level=0 / dynamic-rd=0.00 / no-ssim-rd / signhide / no-tskip / nr-intra=0 / nr-inter=0 / no-constrained-intra / strong-intra-smoothing / max-merge=2 / limit-refs=3 / no-limit-modes / me=1 / subme=2 / merange=57 / temporal-mvp / weightp / no-weightb / no-analyze-src-pics / deblock=1:1 / no-sao / no-sao-non-deblock / rd=3 / no-early-skip / rskip / no-fast-intra / no-tskip-fast / no-cu-lossless / no-b-intra / no-splitrd-skip / rdpenalty=0 / psy-rd=0.40 / psy-rdoq=0.00 / no-rd-refine / no-lossless / cbqpoffs=0 / crqpoffs=0 / rc=crf / crf=12.0 / qcomp=0.60 / qpstep=4 / stats-write=0 / stats-read=0 / vbv-maxrate=160000 / vbv-bufsize=160000 / vbv-init=0.9 / crf-max=0.0 / crf-min=0.0 / ipratio=1.40 / pbratio=1.30 / aq-mode=1 / aq-strength=0.40 / cutree / zone-count=0 / no-strict-cbr / qg-size=32 / no-rc-grain / qpmax=69 / qpmin=0 / no-const-vbv / sar=1 / overscan=0 / videoformat=5 / range=0 / colorprim=2 / transfer=2 / colormatrix=2 / chromaloc=0 / display-window=0 / max-cll=0,0 / min-luma=0 / max-luma=1023 / log2-max-poc-lsb=8 / vui-timing-info / vui-hrd-info / slices=1 / opt-qp-pps / opt-ref-list-length-pps / no-multi-pass-opt-rps / scenecut-bias=0.05 / no-opt-cu-delta-qp / no-aq-motion / no-hdr / no-hdr-opt / no-dhdr10-opt / no-idr-recovery-sei / analysis-reuse-level=5 / scale-factor=0 / refine-intra=0 / refine-inter=0 / refine-mv=0 / refine-ctu-distortion=0 / no-limit-sao / ctu-info=0 / no-lowpass-dct / refine-analysis-type=0 / copy-pic=1 / max-ausize-factor=1.0 / no-dynamic-refine / no-single-sei / no-hevc-aq / qp-adaptation-range=1.00
Default : Yes
Forced : No

Audio #1
ID : 2
Format : MLP FBA 16-ch
Format/Info : Meridian Lossless Packing FBA with 16-channel presentation
Commercial name : Dolby TrueHD with Dolby Atmos
Codec ID : A_TRUEHD
Duration : 1 h 46 min
Bit rate mode : Variable
Bit rate : 7 474 kb/s
Maximum bit rate : 6 894 kb/s
Channel(s) : 8 channels
Channel layout : L R C LFE Ls Rs Lb Rb
Sampling rate : 48.0 kHz
Frame rate : 1 200.000 FPS (40 SPF)
Compression mode : Lossless
Stream size : 5.55 GiB (20%)
Title : Cars.2.2011.2160p.BluRay.x265.10bit.SDR.TrueHD.7.1.Atmos-SWTYBLZ
Language : English
Default : Yes
Forced : No
Number of dynamic objects : 13
Bed channel count : 1 channel
Bed channel configuration : LFE

Audio #2
ID : 3
Format : AC-3
Format/Info : Audio Coding 3
Commercial name : Dolby Digital
Codec ID : A_AC3
Duration : 1 h 46 min
Bit rate mode : Constant
Bit rate : 640 kb/s
Channel(s) : 6 channels
Channel layout : L R C LFE Ls Rs
Sampling rate : 48.0 kHz
Frame rate : 31.250 FPS (1536 SPF)
Bit depth : 16 bits
Compression mode : Lossy
Stream size : 486 MiB (2%)
Title : Cars.2.2011.2160p.BluRay.x265.10bit.SDR.TrueHD.7.1.Atmos-SWTYBLZ
Language : English
Service kind : Complete Main
Default : No
Forced : No

Text #1
ID : 4
Format : UTF-8
Codec ID : S_TEXT/UTF8
Codec ID/Info : UTF-8 Plain Text
Duration : 1 h 37 min
Bit rate : 83 b/s
Count of elements : 1536
Stream size : 59.7 KiB (0%)
Title : English-SRT
Language : English
Default : Yes
Forced : No

Text #2
ID : 5
Format : PGS
Muxing mode : zlib
Codec ID : S_HDMV/PGS
Codec ID/Info : Picture based subtitle format used on BDs/HD-DVDs
Duration : 1 h 37 min
Bit rate : 61.9 kb/s
Count of elements : 3333
Stream size : 43.1 MiB (0%)
Title : English-PGS
Language : English
Default : No
Forced : No

Text #3
ID : 6
Format : PGS
Muxing mode : zlib
Codec ID : S_HDMV/PGS
Codec ID/Info : Picture based subtitle format used on BDs/HD-DVDs
Duration : 1 h 37 min
Bit rate : 50.8 kb/s
Count of elements : 2884
Stream size : 35.4 MiB (0%)
Title : Spanish-PGS
Language : Spanish
Default : No
Forced : No

Menu
00:00:00.000 : en:Chapter 01
00:01:30.006 : en:Chapter 02
00:04:48.329 : en:Chapter 03
00:07:44.464 : en:Chapter 04
00:12:08.519 : en:Chapter 05
00:17:49.777 : en:Chapter 06
00:20:02.159 : en:Chapter 07
00:22:52.329 : en:Chapter 08
00:26:35.343 : en:Chapter 09
00:30:30.995 : en:Chapter 10
00:32:42.794 : en:Chapter 11
00:34:14.343 : en:Chapter 12
00:37:16.400 : en:Chapter 13
00:40:44.859 : en:Chapter 14
00:42:53.988 : en:Chapter 15
00:46:19.401 : en:Chapter 16
00:46:58.732 : en:Chapter 17
00:49:49.361 : en:Chapter 18
00:53:57.234 : en:Chapter 19
00:54:58.086 : en:Chapter 20
00:57:37.036 : en:Chapter 21
00:59:28.565 : en:Chapter 22
01:02:17.608 : en:Chapter 23
01:05:57.036 : en:Chapter 24
01:12:32.598 : en:Chapter 25
01:14:06.733 : en:Chapter 26
01:15:25.020 : en:Chapter 27
01:21:13.618 : en:Chapter 28
01:23:23.081 : en:Chapter 29
01:29:07.759 : en:Chapter 30
01:31:48.961 : en:Chapter 31
01:32:42.056 : en:Chapter 32
01:38:19.393 : en:Chapter 33





1 个附件 售价 大小 下载 时间

Cars.2.2011.2160p.BluRay.x265.10bit.SDR.TrueHD.7.1.Atmos-SWTYBLZ.torrent 0 金币 69.63K 308 次 1月前

#1楼
发帖时间:2019-09-11 02:37:54   |   回复数:3
jokingcheung
一代宗师
谢谢分享
1月前 #2楼
911degrees
隐世仙人♂
非常感谢,谢谢分享
1月前 #3楼
liyouchai
隐世仙人♂
谢谢楼主分享资源
1月前 #4楼
游客组