conanlcg
超级版主

[2011] [其他] [喜剧] [BD-1080P] 未来之人 The.Man.from.the.Future.2011.1080p.BluRay.x264-PHOBOS 8.74GB

-->

帖子完整标题:未来之人 The.Man.from.the.Future.2011.1080p.BluRay.x264-PHOBOS 8.74GB




◎译  名 未来之人
◎片  名 O Homem do Futuro
◎年  代 2011
◎产  地 巴西
◎类  别 喜剧 / 奇幻
◎语  言 葡萄牙语
◎上映日期 2011-09-02
◎IMDb评分 7.0/10 from 5157 users
◎IMDb链接 http://www.imdb.com/title/tt2027178
◎豆瓣评分 6.6/10 from 2029 users
◎豆瓣链接 https://movie.douban.com/subject/6864436/
◎片  长 106分钟
◎导  演 Cláudio Torres
◎编  剧 Cláudio Torres
◎主  演 瓦格纳·马拉 Wagner Moura
      Aline Moraes
      Maria Luísa Mendon?a
      Fernando Ceyl?o
      Gabriel Braga Nunes


◎标  签 科幻 | 巴西 | 喜剧 | 时间旅行 | 爱情 | 穿越 | 巴西电影 | 2011

◎简  介

  巴西物理学教授泽洛(瓦格纳·马拉 Wagner Moura 饰)是一位天才人物,他的行为乖张,曾有过无数重大的发明,但是投资人越来越无法忍受他的疯狂举止,于是单方面终止了与他的合作。被逼入绝境的泽洛暗中加紧粒子冲撞机的实验,只为借其打开时光隧道回到1991年的11月22日。20年前,泽洛结识了同校的美丽女孩海伦娜(阿琳妮·莫雷斯 Aline Moraes 饰),他暗恋对方,帮助她补课,但是对方的美艳以及海伦娜强壮的男友令泽洛望而却步,他甚至在这一过程中遭遇了影响一生的奇耻大辱。
  为了改变自己虽然天才实则废柴的一生,泽洛希望帮助年轻的自己改变未来,开辟不一样的人生……
Video
ID : 1
Format : AVC
Format/Info : Advanced Video Codec
Format profile : [email protected]
Format settings : CABAC / 5 Ref Frames
Format settings, CABAC : Yes
Format settings, Reference frames : 5 frames
Codec ID : V_MPEG4/ISO/AVC
Duration : 1 h 45 min
Bit rate : 10.4 Mb/s
Width : 1 920 pixels
Height : 816 pixels
Display aspect ratio : 2.35:1
Frame rate mode : Constant
Frame rate : 24.000 FPS
Color space : YUV
Chroma subsampling : 4:2:0
Bit depth : 8 bits
Scan type : Progressive
Bits/(Pixel*Frame) : 0.276
Stream size : 7.63 GiB (87%)
Writing library : x264 core 146 r2538M 121396c
Encoding settings : cabac=1 / ref=5 / deblock=1:0:0 / analyse=0x3:0x133 / me=umh / subme=10 / psy=1 / psy_rd=1.00:0.00 / mixed_ref=1 / me_range=24 / chroma_me=1 / trellis=2 / 8x8dct=1 / cqm=0 / deadzone=21,11 / fast_pskip=1 / chroma_qp_offset=-2 / threads=12 / lookahead_threads=2 / sliced_threads=0 / nr=0 / decimate=1 / interlaced=0 / bluray_compat=0 / constrained_intra=0 / bframes=8 / b_pyramid=2 / b_adapt=2 / b_bias=0 / direct=3 / weightb=1 / open_gop=0 / weightp=2 / keyint=250 / keyint_min=24 / scenecut=40 / intra_refresh=0 / rc_lookahead=60 / rc=2pass / mbtree=1 / bitrate=10384 / ratetol=1.0 / qcomp=0.60 / qpmin=0 / qpmax=69 / qpstep=4 / cplxblur=20.0 / qblur=0.5 / ip_ratio=1.40 / aq=1:1.00
Default : Yes
Forced : No

Audio
ID : 2
Format : DTS
Format/Info : Digital Theater Systems
Codec ID : A_DTS
Duration : 1 h 45 min
Bit rate mode : Constant
Bit rate : 1 509 kb/s
Channel(s) : 6 channels
Channel layout : C L R Ls Rs LFE
Sampling rate : 48.0 kHz
Frame rate : 93.750 FPS (512 SPF)
Bit depth : 24 bits
Compression mode : Lossy
Stream size : 1.11 GiB (13%)
Language : Portuguese
Default : Yes
Forced : No

Text
ID : 3
Format : UTF-8
Codec ID : S_TEXT/UTF8
Codec ID/Info : UTF-8 Plain Text
Duration : 1 h 38 min
Bit rate : 58 b/s
Count of elements : 1259
Stream size : 41.9 KiB (0%)
Language : English
Default : Yes
Forced : No

Menu
00:00:00.000 : en:00:00:00.000
00:04:04.667 : en:00:04:04.667
00:13:07.500 : en:00:13:07.500
00:22:22.417 : en:00:22:22.417
00:35:57.583 : en:00:35:57.583
00:46:00.583 : en:00:46:00.583
00:54:40.042 : en:00:54:40.042
01:02:10.417 : en:01:02:10.417
01:10:59.458 : en:01:10:59.458
01:18:42.042 : en:01:18:42.042
01:28:05.000 : en:01:28:05.000
01:38:57.000 : en:01:38:57.000





1 个附件 售价 大小 下载 时间

The.Man.from.the.Future.2011.1080p.BluRay.x264-PHOBOS.torrent 0 金币 44.26K 371 次 1月前

#1楼
发帖时间:2019-09-09 02:35:41   |   回复数:2
911degrees
隐世仙人♂
非常感谢,谢谢分享
1月前 #2楼
liyouchai
隐世仙人♂
谢谢楼主分享资源
1月前 #3楼
游客组