conanlcg
超级版主

[更 早] [其他] [喜剧] [BD-1080P] 警察故事續集 Police.Story.2.1988.REMASTERED.1080p.BluRay.x264-GHOULS 8.75GB

-->

帖子完整标题:警察故事續集 Police.Story.2.1988.REMASTERED.1080p.BluRay.x264-GHOULS 8.75GB




◎译  名 警察故事续集 / Police Story II / 警察故事2
◎片  名 警察故事續集
◎年  代 1988
◎产  地 中国香港
◎类  别 喜剧 / 动作 / 犯罪
◎语  言 粤语
◎上映日期 1988-08-20(中国香港)
◎IMDb评分 7.1/10 from 15238 users
◎IMDb链接 http://www.imdb.com/title/tt0095403
◎豆瓣评分 7.5/10 from 35345 users
◎豆瓣链接 https://movie.douban.com/subject/1304726/
◎片  长 101分钟
◎导  演 成龙 Jackie Chan
◎编  剧 成龙 Jackie Chan / 邓景生 Edward Tang
◎主  演 成龙 Jackie Chan
      张曼玉 Maggie Cheung
      陈国新 Dennis Chan
      楚原 Yuen Chor
      曹查理 Charlie Cho


◎标  签 成龙 | 动作 | 香港 | 香港电影 | 张曼玉 | 喜剧 | 警匪 | 1988

◎简  介

  英雄警察陈家驹(成龙 饰)又回来了。不过,性格火爆、直言不讳的他这次因为不满意上司放走了一个极其危险的重犯而和上司吵翻了,愤然辞职。脱离了警察生活的家驹和女友去旅行期间,一间电话公司遭到了炸弹恐吓,本性难移的家驹马上赶到了现场,着手调查案件。
  岂料一波未平,一波又起。这个炸弹狂徒竟然炸毁了警局的大门,还绑架了家驹的女友,要求家驹携带大量赎款前往货仓交换人质。当家驹身带巨款抵达货仓时,发现这里已经布满了炸弹……

◎获奖情况

  第25届台北金马影展(1988)
  金马奖 最佳剧情片(提名)
  金马奖 最佳美术设计 黄锐民

  第8届香港电影金像奖(1989)
  最佳动作设计
Video
ID : 1
Format : AVC
Format/Info : Advanced Video Codec
Format profile : [email protected]
Format settings : CABAC / 5 Ref Frames
Format settings, CABAC : Yes
Format settings, RefFrames : 5 frames
Codec ID : V_MPEG4/ISO/AVC
Duration : 2 h 1 min
Bit rate : 8 733 kb/s
Width : 1 920 pixels
Height : 816 pixels
Display aspect ratio : 2.35:1
Frame rate mode : Constant
Frame rate : 23.976 (24000/1001) FPS
Color space : YUV
Chroma subsampling : 4:2:0
Bit depth : 8 bits
Scan type : Progressive
Bits/(Pixel*Frame) : 0.232
Stream size : 7.44 GiB (85%)
Writing library : x264 core 155 r2901 7d0ff22
Encoding settings : cabac=1 / ref=5 / deblock=1:-3:-3 / analyse=0x3:0x133 / me=umh / subme=8 / psy=1 / psy_rd=1.00:0.00 / mixed_ref=1 / me_range=16 / chroma_me=1 / trellis=1 / 8x8dct=1 / cqm=0 / deadzone=21,11 / fast_pskip=0 / chroma_qp_offset=-2 / threads=24 / lookahead_threads=4 / sliced_threads=0 / nr=0 / decimate=1 / interlaced=0 / bluray_compat=0 / constrained_intra=0 / bframes=3 / b_pyramid=2 / b_adapt=1 / b_bias=0 / direct=3 / weightb=1 / open_gop=0 / weightp=2 / keyint=250 / keyint_min=23 / scenecut=40 / intra_refresh=0 / rc_lookahead=50 / rc=2pass / mbtree=1 / bitrate=8733 / ratetol=1.0 / qcomp=0.60 / qpmin=0 / qpmax=69 / qpstep=4 / cplxblur=20.0 / qblur=0.5 / vbv_maxrate=62500 / vbv_bufsize=78125 / nal_hrd=none / filler=0 / ip_ratio=1.40 / aq=1:1.00
Default : Yes
Forced : No

Audio #1
ID : 2
Format : DTS
Format/Info : Digital Theater Systems
Mode : 16
Format settings, Endianness : Big
Codec ID : A_DTS
Duration : 2 h 1 min
Bit rate mode : Constant
Bit rate : 768 kb/s
Channel(s) : 6 channels
Channel positions : Front: L C R, Side: L R, LFE
Sampling rate : 48.0 kHz
Frame rate : 93.750 FPS (512 SPF)
Bit depth : 24 bits
Compression mode : Lossy
Stream size : 670 MiB (7%)
Language : Chinese
Default : Yes
Forced : No

Audio #2
ID : 3
Format : DTS
Format/Info : Digital Theater Systems
Mode : 16
Format settings, Endianness : Big
Codec ID : A_DTS
Duration : 2 h 1 min
Bit rate mode : Constant
Bit rate : 768 kb/s
Channel(s) : 6 channels
Channel positions : Front: L C R, Side: L R, LFE
Sampling rate : 48.0 kHz
Frame rate : 93.750 FPS (512 SPF)
Bit depth : 24 bits
Compression mode : Lossy
Stream size : 670 MiB (7%)
Language : English
Default : No
Forced : No

Text
ID : 4
Format : UTF-8
Codec ID : S_TEXT/UTF8
Codec ID/Info : UTF-8 Plain Text
Duration : 1 h 54 min
Bit rate : 48 b/s
Count of elements : 1348
Stream size : 40.5 KiB (0%)
Language : English
Default : Yes
Forced : No

Menu
00:00:00.000 : en:00:00:00.000
00:10:23.498 : en:00:10:23.498
00:20:18.509 : en:00:20:18.509
00:30:21.778 : en:00:30:21.778
00:34:49.963 : en:00:34:49.963
00:40:07.572 : en:00:40:07.572
00:50:41.455 : en:00:50:41.455
01:00:35.257 : en:01:00:35.257
01:11:06.762 : en:01:11:06.762
01:21:13.577 : en:01:21:13.577
01:32:35.008 : en:01:32:35.008
01:43:29.829 : en:01:43:29.829
01:52:26.949 : en:01:52:26.949
01:59:01.092 : en:01:59:01.092





1 个附件 售价 大小 下载 时间

Police.Story.2.1988.REMASTERED.1080p.BluRay.x264-GHOULS.torrent 0 金币 88.09K 777 次 28天前

#1楼
发帖时间:2019-08-26 04:09:41   |   回复数:3
jokingcheung
一代宗师
谢谢分享
28天前 #2楼
911degrees
隐世仙人♂
非常感谢,谢谢分享
28天前 #3楼
liyouchai
隐世仙人♂
谢谢楼主分享资源
28天前 #4楼
游客组