conanlcg
超级版主

[2015] [欧美] [动作] [BD-1080P] 移动迷宫2 Maze.Runner.The.Scorch.Trials.2015.1080p.BluRay.x264-SPARKS 9.85GB

-->

帖子完整标题:移动迷宫2 Maze.Runner.The.Scorch.Trials.2015.1080p.BluRay.x264-SPARKS 9.85GB




◎译  名 移动迷宫2 / Maze Runner 2 / The Maze Runner Chapter II: The Scorch Trials / 灼热试炼 / 移动迷宫2:烧痕审判 / 移动迷宫:焦土试炼(台 / 港)
◎片  名 Maze Runner: The Scorch Trials
◎年  代 2015
◎产  地 美国
◎类  别 动作 / 科幻 / 冒险
◎语  言 英语
◎上映日期 2015-09-18(美国) / 2015-11-04(中国大陆)
◎IMDb评分 6.3/10 from 203762 users
◎IMDb链接 http://www.imdb.com/title/tt4046784
◎豆瓣评分 5.8/10 from 80522 users
◎豆瓣链接 https://movie.douban.com/subject/25995508/
◎片  长 132分钟
◎导  演 韦斯·鲍尔 Wes Ball
◎编  剧 T·S·诺林 T.S. Nowlin / 詹姆斯·达什纳 James Dashner
◎主  演 迪伦·欧布莱恩 Dylan O'Brien
      卡雅·斯考达里奥 Kaya Scodelario
      托马斯·布罗迪-桑斯特 Thomas Brodie-Sangster
      吉安卡罗·埃斯波西托 Giancarlo Esposito
      艾丹·吉伦 Aidan Gillen
      李起弘 Ki Hong Lee
      巴里·佩珀 Barry Pepper
      莉莉·泰勒 Lili Taylor
      派翠西娅·克拉克森 Patricia Clarkson
      德克斯特·达登 Dexter Darden
      亚历山大·弗洛里斯 Alexander Flores
      雅库布·洛弗兰德 Jacob Lofland
      罗莎·萨拉查 Rosa Salazar
      特里·戴尔·帕克斯 Terry Dale Parks
      凯瑟琳·史密斯-麦格林 Kathryn Smith-McGlynn
      凯瑟琳·麦克纳马拉 Katherine McNamara
      娜塔莉·伊曼纽尔 Nathalie Emmanuel


◎标  签 科幻 | 美国 | 动作 | 冒险 | 2015 | 惊悚 | 悬疑 | 小说改编

◎简  介

  托马斯(迪伦·欧布莱恩 Dylan O'Brien 饰)、米诺(李基弘 Ki Hong Lee 饰)一行人被带到一座神秘的庇护所,这个机构由表里不一的詹森(艾丹·吉伦 Aidan Gillen 饰)所管理,詹森为他们提供安稳且舒适的环境,并下令让幽地斗士们在医疗实验室中接受一连串的测试,詹森向托马斯保证将会把他们送到更加安全的保护区与其他对“闪焰症病毒”免疫的年轻人一同居住。察觉事有蹊跷的托马斯决定再次带领他的伙伴们逃出詹森的掌控,然而等待他们的,却是比迷宫更加危险的焦土。
  影片改编自詹姆斯·达什纳撰写的同名反乌托邦科幻小说三部曲的第二部。

◎获奖情况

  第43届动画安妮奖(2016)
  最佳真人电影动画效果(提名)

  第2届豆瓣电影年度榜单(2015)
  11月最受关注电影(提名)
  评分最低的外语电影(提名)

  第6届豆瓣电影鑫像奖(2016)
  豆渣单元 最渣影片(外语)(提名)
  豆渣单元 最渣导演(外语)(提名) 韦斯·鲍尔
Video
ID : 1
Format : AVC
Format/Info : Advanced Video Codec
Format profile : [email protected]
Format settings : CABAC / 5 Ref Frames
Format settings, CABAC : Yes
Format settings, Reference frames : 5 frames
Codec ID : V_MPEG4/ISO/AVC
Duration : 2 h 11 min
Bit rate : 9 185 kb/s
Width : 1 920 pixels
Height : 800 pixels
Display aspect ratio : 2.40:1
Frame rate mode : Constant
Frame rate : 23.976 FPS
Color space : YUV
Chroma subsampling : 4:2:0
Bit depth : 8 bits
Scan type : Progressive
Bits/(Pixel*Frame) : 0.249
Stream size : 8.45 GiB (86%)
Writing library : x264 core 148 r2638 7599210
Encoding settings : cabac=1 / ref=5 / deblock=1:0:0 / analyse=0x3:0x133 / me=umh / subme=7 / psy=1 / psy_rd=1.00:0.00 / mixed_ref=1 / me_range=16 / chroma_me=1 / trellis=1 / 8x8dct=1 / cqm=0 / deadzone=21,11 / fast_pskip=0 / chroma_qp_offset=-2 / threads=12 / lookahead_threads=2 / sliced_threads=0 / nr=0 / decimate=1 / interlaced=0 / bluray_compat=0 / constrained_intra=0 / bframes=3 / b_pyramid=2 / b_adapt=1 / b_bias=0 / direct=1 / weightb=1 / open_gop=0 / weightp=2 / keyint=250 / keyint_min=23 / scenecut=40 / intra_refresh=0 / rc_lookahead=40 / rc=2pass / mbtree=1 / bitrate=9185 / ratetol=1.0 / qcomp=0.60 / qpmin=0 / qpmax=69 / qpstep=4 / cplxblur=20.0 / qblur=0.5 / ip_ratio=1.40 / aq=1:1.00
Language : English
Default : Yes
Forced : No

Audio
ID : 2
Format : DTS ES
Format/Info : Digital Theater Systems
Commercial name : DTS-ES Matrix
Codec ID : A_DTS
Duration : 2 h 11 min
Bit rate mode : Constant
Bit rate : 1 509 kb/s
Channel(s) : 6 channels
Channel(s)_Original : 7 channels
Channel layout : C L R Ls Rs Cb LFE
Sampling rate : 48.0 kHz
Frame rate : 93.750 FPS (512 SPF)
Bit depth : 24 bits
Compression mode : Lossy
Stream size : 1.39 GiB (14%)
Language : English
Default : Yes
Forced : No

Menu
00:00:00.000 : en:00:00:00.000
00:04:05.120 : en:00:04:05.120
00:05:59.818 : en:00:05:59.818
00:09:08.798 : en:00:09:08.798
00:11:55.840 : en:00:11:55.840
00:17:32.677 : en:00:17:32.677
00:23:21.191 : en:00:23:21.191
00:27:36.029 : en:00:27:36.029
00:33:10.238 : en:00:33:10.238
00:37:06.683 : en:00:37:06.683
00:41:30.988 : en:00:41:30.988
00:45:47.370 : en:00:45:47.370
00:51:57.781 : en:00:51:57.781
00:56:01.775 : en:00:56:01.775
01:00:56.319 : en:01:00:56.319
01:03:50.535 : en:01:03:50.535
01:07:29.254 : en:01:07:29.254
01:11:19.192 : en:01:11:19.192
01:15:32.820 : en:01:15:32.820
01:20:15.060 : en:01:20:15.060
01:27:47.471 : en:01:27:47.471
01:30:17.287 : en:01:30:17.287
01:34:04.013 : en:01:34:04.013
01:38:29.904 : en:01:38:29.904
01:40:52.546 : en:01:40:52.546
01:44:13.122 : en:01:44:13.122
01:51:51.872 : en:01:51:51.872
01:56:51.213 : en:01:56:51.213
02:01:02.714 : en:02:01:02.714
02:04:05.146 : en:02:04:05.146





1 个附件 售价 大小 下载 时间

Maze.Runner.The.Scorch.Trials.2015.1080p.BluRay.x264-SPARKS.torrent 0 金币 99.37K 805 次 28天前

#1楼
发帖时间:2019-08-26 03:28:24   |   回复数:3
jokingcheung
一代宗师
谢谢分享
28天前 #2楼
911degrees
隐世仙人♂
非常感谢,谢谢分享
28天前 #3楼
liyouchai
隐世仙人♂
谢谢楼主分享资源
28天前 #4楼
游客组