conanlcg
超级版主

[更 早] [其他] [其他] [BD-1080P] 四大煞星 The.Unholy.Four.1970.1080p.BluRay.x264-SADPANDA 6.55GB

-->

帖子完整标题:四大煞星 The.Unholy.Four.1970.1080p.BluRay.x264-SADPANDA 6.55GB




◎译  名 四大煞星 / The Unholy Four
◎片  名 The Unholy Four
◎年  代 1970
◎产  地 意大利
◎类  别 西部
◎语  言 意大利语
◎上映日期 1970
◎IMDb评分 6.0/10 from 286 users
◎IMDb链接 http://www.imdb.com/title/tt0065550
◎豆瓣评分 0/10 from 0 users
◎豆瓣链接 https://movie.douban.com/subject/5083678/
◎片  长 France: 90 分钟
◎导  演 恩佐·巴博尼 Enzo Barboni
◎编  剧 弗兰科·罗塞蒂 Franco Rossetti
◎主  演 LEONARD MANN, WOODY STRODE, PETER MARTELL , GEORGE


◎标  签 1970 | 西部牛仔 | 西部 | 被忽视的片子 | 意大利 | WoodyStrode | BDMV | 7.2

◎简  介

  暂无相关剧情介绍
Video
ID : 1
Format : AVC
Format/Info : Advanced Video Codec
Format profile : [email protected]
Format settings : CABAC / 4 Ref Frames
Format settings, CABAC : Yes
Format settings, RefFrames : 4 frames
Codec ID : V_MPEG4/ISO/AVC
Duration : 1 h 34 min
Bit rate : 9 409 kb/s
Width : 1 920 pixels
Height : 1 040 pixels
Display aspect ratio : 1.85:1
Frame rate mode : Constant
Frame rate : 23.976 (24000/1001) FPS
Color space : YUV
Chroma subsampling : 4:2:0
Bit depth : 8 bits
Scan type : Progressive
Bits/(Pixel*Frame) : 0.197
Stream size : 6.20 GiB (95%)
Writing library : x264 core 155 r2901 7d0ff22
Encoding settings : cabac=1 / ref=4 / deblock=1:-3:-3 / analyse=0x3:0x113 / me=umh / subme=8 / psy=1 / psy_rd=1.00:0.25 / mixed_ref=1 / me_range=24 / chroma_me=1 / trellis=1 / 8x8dct=1 / cqm=0 / deadzone=21,11 / fast_pskip=1 / chroma_qp_offset=-4 / threads=32 / lookahead_threads=5 / sliced_threads=0 / nr=0 / decimate=1 / interlaced=0 / bluray_compat=0 / constrained_intra=0 / bframes=3 / b_pyramid=2 / b_adapt=1 / b_bias=0 / direct=3 / weightb=1 / open_gop=0 / weightp=2 / keyint=240 / keyint_min=24 / scenecut=40 / intra_refresh=0 / rc_lookahead=50 / rc=2pass / mbtree=1 / bitrate=9409 / ratetol=1.0 / qcomp=0.60 / qpmin=0 / qpmax=69 / qpstep=4 / cplxblur=20.0 / qblur=0.5 / ip_ratio=1.40 / aq=1:0.75
Default : Yes
Forced : No

Audio #1
ID : 2
Format : FLAC
Format/Info : Free Lossless Audio Codec
Codec ID : A_FLAC
Duration : 1 h 34 min
Bit rate mode : Variable
Bit rate : 250 kb/s
Channel(s) : 2 channels
Channel positions : Front: L R
Sampling rate : 48.0 kHz
Frame rate : 11.719 FPS (4096 SPF)
Bit depth : 16 bits
Stream size : 168 MiB (3%)
Writing library : libFLAC 1.2.1 (UTC 2007-09-17)
Language : Italian
Default : Yes
Forced : No

Audio #2
ID : 3
Format : FLAC
Format/Info : Free Lossless Audio Codec
Codec ID : A_FLAC
Duration : 1 h 34 min
Bit rate mode : Variable
Bit rate : 285 kb/s
Channel(s) : 2 channels
Channel positions : Front: L R
Sampling rate : 48.0 kHz
Frame rate : 11.719 FPS (4096 SPF)
Bit depth : 16 bits
Stream size : 192 MiB (3%)
Writing library : libFLAC 1.2.1 (UTC 2007-09-17)
Language : English
Default : No
Forced : No

Text
ID : 4
Format : UTF-8
Codec ID : S_TEXT/UTF8
Codec ID/Info : UTF-8 Plain Text
Duration : 1 h 30 min
Bit rate : 34 b/s
Count of elements : 706
Stream size : 22.7 KiB (0%)
Language : English
Default : Yes
Forced : No

Menu
00:00:00.000 : en:00:00:00.000
00:10:13.196 : en:00:10:13.196
00:20:36.152 : en:00:20:36.152
00:36:56.005 : en:00:36:56.005
00:46:57.189 : en:00:46:57.189
01:00:15.695 : en:01:00:15.695
01:12:52.118 : en:01:12:52.118
01:27:32.456 : en:01:27:32.456





1 个附件 售价 大小 下载 时间

The.Unholy.Four.1970.1080p.BluRay.x264-SADPANDA.torrent 0 金币 131.64K 266 次 28天前

#1楼
发帖时间:2019-08-26 01:21:55   |   回复数:2
liyouchai
隐世仙人♂
谢谢楼主分享资源
27天前 #2楼
tanchoohoon
武林盟主
感谢楼主的无私分享
27天前 #3楼
游客组