conanlcg
超级版主

[更 早] [其他] [科幻] [BD-1080P] 亚特兰蒂斯神话 Beyond.Atlantis.1973.1080p.BluRay.x264.DTS-FGT 8.31GB

-->

帖子完整标题:亚特兰蒂斯神话 Beyond.Atlantis.1973.1080p.BluRay.x264.DTS-FGT 8.31GB




◎译  名 亚特兰蒂斯神话
◎片  名 Beyond Atlantis
◎年  代 1973
◎产  地 美国 / 菲律宾
◎类  别 科幻 / 恐怖 / 奇幻
◎语  言 英语
◎上映日期 1973
◎IMDb评分 4.4/10 from 248 users
◎IMDb链接 http://www.imdb.com/title/tt0069783
◎豆瓣评分 0/10 from 0 users
◎豆瓣链接 https://movie.douban.com/subject/2237891/
◎片  长 91 分钟
◎导  演 Eddie Romero
◎编  剧 Charles Eric Johnson / Stephanie Rothman
◎主  演 John Ashley
      帕特里克·韦恩 Patrick Wayne
      乔治·纳德 George Nader
      希德·黑格 Sid Haig


◎标  签 美国电影 | 东南亚-菲律宾 | Cult

◎简  介

  一群冒险家入侵了一座土著岛屿,他们决心在埋藏的宝藏中攫取一笔财富。岛上的居民同样下定决心要保存他们神圣的财富,双方冲突开始升级。
Video
ID : 1
Format : AVC
Format/Info : Advanced Video Codec
Format profile : [email protected]
Format settings : CABAC / 4 Ref Frames
Format settings, CABAC : Yes
Format settings, Reference frames : 4 frames
Codec ID : V_MPEG4/ISO/AVC
Duration : 1 h 31 min
Bit rate : 11.5 Mb/s
Width : 1 920 pixels
Height : 1 024 pixels
Display aspect ratio : 1.85:1
Frame rate mode : Constant
Frame rate : 23.976 (24000/1001) FPS
Color space : YUV
Chroma subsampling : 4:2:0
Bit depth : 8 bits
Scan type : Progressive
Bits/(Pixel*Frame) : 0.244
Stream size : 7.34 GiB (88%)
Title : Beyond.Atlantis.1973.1080p.BluRay.x264.DTS-FGT
Writing library : x264 core 148 r2795M aaa9aa8
Encoding settings : cabac=1 / ref=4 / deblock=1:-2:-2 / analyse=0x3:0x113 / me=umh / subme=9 / psy=1 / psy_rd=1.00:0.15 / mixed_ref=1 / me_range=16 / chroma_me=1 / trellis=2 / 8x8dct=1 / cqm=0 / deadzone=21,11 / fast_pskip=1 / chroma_qp_offset=-3 / threads=24 / lookahead_threads=3 / sliced_threads=0 / nr=0 / decimate=1 / interlaced=0 / bluray_compat=0 / constrained_intra=0 / bframes=3 / b_pyramid=2 / b_adapt=1 / b_bias=0 / direct=3 / weightb=1 / open_gop=0 / weightp=2 / keyint=250 / keyint_min=25 / scenecut=40 / intra_refresh=0 / rc_lookahead=50 / rc=2pass / mbtree=1 / bitrate=11500 / ratetol=1.0 / qcomp=0.60 / qpmin=0 / qpmax=69 / qpstep=4 / cplxblur=20.0 / qblur=0.5 / vbv_maxrate=31250 / vbv_bufsize=31250 / nal_hrd=none / filler=0 / ip_ratio=1.40 / aq=1:1.00
Language : English
Default : Yes
Forced : No

Audio
ID : 2
Format : DTS
Format/Info : Digital Theater Systems
Codec ID : A_DTS
Duration : 1 h 31 min
Bit rate mode : Constant
Bit rate : 1 509 kb/s
Channel(s) : 2 channels
Channel layout : L R
Sampling rate : 48.0 kHz
Frame rate : 93.750 FPS (512 SPF)
Bit depth : 16 bits
Compression mode : Lossy
Stream size : 986 MiB (12%)
Title : Beyond.Atlantis.1973.1080p.BluRay.x264.DTS-FGT
Language : English
Default : Yes
Forced : No

Text
ID : 3
Format : UTF-8
Codec ID : S_TEXT/UTF8
Codec ID/Info : UTF-8 Plain Text
Duration : 1 h 28 min
Bit rate : 33 b/s
Count of elements : 721
Stream size : 21.7 KiB (0%)
Language : English
Default : Yes
Forced : No

Menu
00:00:00.000 : en:Chapter 1
00:08:58.371 : en:Chapter 2
00:15:14.831 : en:Chapter 3
00:22:29.557 : en:Chapter 4
00:28:55.233 : en:Chapter 5
00:37:06.641 : en:Chapter 6
00:41:32.323 : en:Chapter 7
00:48:58.978 : en:Chapter 8
01:01:09.082 : en:Chapter 9
01:10:35.189 : en:Chapter 10
01:17:13.045 : en:Chapter 11
01:24:23.475 : en:Chapter 12





1 个附件 售价 大小 下载 时间

Beyond.Atlantis.1973.1080p.BluRay.x264.DTS-FGT.torrent 0 金币 42.06K 378 次 26天前

#1楼
发帖时间:2019-08-26 01:12:20   |   回复数:1
liyouchai
隐世仙人♂
谢谢楼主分享资源
25天前 #2楼
游客组