conanlcg
超级版主

[更 早] [欧美] [剧情] [BD-1080P] 骚货 Hussy.1980.1080p.BluRay.x264.DTS-FGT 8.66GB

-->

帖子完整标题:骚货 Hussy.1980.1080p.BluRay.x264.DTS-FGT 8.66GB




◎译  名 骚货
◎片  名 Hussy
◎年  代 1980
◎产  地 英国
◎类  别 剧情
◎语  言 英语
◎上映日期 1980
◎IMDb评分 5.0/10 from 292 users
◎IMDb链接 http://www.imdb.com/title/tt0080908
◎豆瓣评分 0/10 from 0 users
◎豆瓣链接 https://movie.douban.com/subject/5051395/
◎片  长 95分钟
◎导  演 马修·查普曼 Matthew Chapman
◎编  剧 马修·查普曼 Matthew Chapman
◎主  演 海伦·米伦 Helen Mirren
      约翰·希亚 John Shea
      保罗·安吉利斯 Paul Angelis


◎标  签 情色 | 海伦·米伦 | 英国电影 | 英国 | 1980 | Helen_Mirren | helen_mirren | 看电影

◎简  介

  Beaty is a prostitute working out of a high-class London cabaret where Emory is a technician. They begin an affair encumbered by her job, his lack of money, and their pasts: Beaty has a ten-year-old son who lives with her ex, and she has a dangerous former boyfriend; Emory has a wife who died in questionable circumstances and a shady friend who shows up with a scheme for making lots of money...
Video
ID : 1
Format : AVC
Format/Info : Advanced Video Codec
Format profile : [email protected]
Format settings : CABAC / 4 Ref Frames
Format settings, CABAC : Yes
Format settings, Reference frames : 4 frames
Codec ID : V_MPEG4/ISO/AVC
Duration : 1 h 35 min
Bit rate : 11.5 Mb/s
Width : 1 920 pixels
Height : 1 036 pixels
Display aspect ratio : 1.85:1
Frame rate mode : Constant
Frame rate : 23.976 (24000/1001) FPS
Color space : YUV
Chroma subsampling : 4:2:0
Bit depth : 8 bits
Scan type : Progressive
Bits/(Pixel*Frame) : 0.241
Stream size : 7.65 GiB (88%)
Title : Hussy.1980.1080p.BluRay.x264.DTS-FGT
Writing library : x264 core 148 r2795M aaa9aa8
Encoding settings : cabac=1 / ref=4 / deblock=1:-2:-2 / analyse=0x3:0x113 / me=umh / subme=9 / psy=1 / psy_rd=1.00:0.15 / mixed_ref=1 / me_range=16 / chroma_me=1 / trellis=2 / 8x8dct=1 / cqm=0 / deadzone=21,11 / fast_pskip=1 / chroma_qp_offset=-3 / threads=24 / lookahead_threads=3 / sliced_threads=0 / nr=0 / decimate=1 / interlaced=0 / bluray_compat=0 / constrained_intra=0 / bframes=3 / b_pyramid=2 / b_adapt=1 / b_bias=0 / direct=3 / weightb=1 / open_gop=0 / weightp=2 / keyint=250 / keyint_min=25 / scenecut=40 / intra_refresh=0 / rc_lookahead=50 / rc=2pass / mbtree=1 / bitrate=11500 / ratetol=1.0 / qcomp=0.60 / qpmin=0 / qpmax=69 / qpstep=4 / cplxblur=20.0 / qblur=0.5 / vbv_maxrate=31250 / vbv_bufsize=31250 / nal_hrd=none / filler=0 / ip_ratio=1.40 / aq=1:1.00
Language : English
Default : Yes
Forced : No

Audio
ID : 2
Format : DTS
Format/Info : Digital Theater Systems
Codec ID : A_DTS
Duration : 1 h 35 min
Bit rate mode : Constant
Bit rate : 1 509 kb/s
Channel(s) : 2 channels
Channel layout : L R
Sampling rate : 48.0 kHz
Frame rate : 93.750 FPS (512 SPF)
Bit depth : 24 bits
Compression mode : Lossy
Stream size : 1.00 GiB (12%)
Title : Hussy.1980.1080p.BluRay.x264.DTS-FGT
Language : English
Default : Yes
Forced : No

Menu
00:00:00.000 : en:Chapter 1
00:02:24.770 : en:Chapter 2
00:06:43.028 : en:Chapter 3
00:12:02.513 : en:Chapter 4
00:17:17.328 : en:Chapter 5
00:23:34.872 : en:Chapter 6
00:26:59.076 : en:Chapter 7
00:29:29.893 : en:Chapter 8
00:31:00.734 : en:Chapter 9
00:35:45.060 : en:Chapter 10
00:39:40.587 : en:Chapter 11
00:41:04.337 : en:Chapter 12
00:44:44.181 : en:Chapter 13
00:49:20.791 : en:Chapter 14
00:54:30.559 : en:Chapter 15
01:01:01.157 : en:Chapter 16
01:04:56.726 : en:Chapter 17
01:11:07.763 : en:Chapter 18
01:15:51.589 : en:Chapter 19
01:19:14.833 : en:Chapter 20
01:22:43.375 : en:Chapter 21
01:24:42.286 : en:Chapter 22
01:26:51.206 : en:Chapter 23
01:32:12.610 : en:Chapter 24





1 个附件 售价 大小 下载 时间

Hussy.1980.1080p.BluRay.x264.DTS-FGT.torrent 0 金币 43.79K 1519 次 23天前

#1楼
发帖时间:2019-08-26 01:07:13   |   回复数:1
liyouchai
隐世仙人♂
谢谢楼主分享资源
22天前 #2楼
游客组