conanlcg
超级版主

[更 早] [欧美] [喜剧] [BD-1080P] 康尼岛 Coney.Island.1943.1080p.BluRay.x264.DD2.0-MiBR 15.35GB

-->

帖子完整标题:康尼岛 Coney.Island.1943.1080p.BluRay.x264.DD2.0-MiBR 15.35GB




◎译  名 康尼岛
◎片  名 Coney Island
◎年  代 1943
◎产  地 美国
◎类  别 喜剧 / 歌舞
◎语  言 英语
◎上映日期 1943-06-18
◎IMDb评分 6.4/10 from 336 users
◎IMDb链接 http://www.imdb.com/title/tt0035749
◎豆瓣评分 0/10 from 0 users
◎豆瓣链接 https://movie.douban.com/subject/1301126/
◎片  长 96 分钟
◎导  演 沃尔特·朗 Walter Lang
◎编  剧 乔治·希顿 George Seaton
◎主  演 贝蒂·格拉布尔 Betty Grable
      乔治·蒙哥马利 George Montgomery


◎标  签 1943 | BDMV

◎简  介

  暂无相关剧情介绍

◎获奖情况

  第16届奥斯卡金像奖(1944)
  歌舞片最佳配乐(提名) 阿尔弗雷德·纽曼
Video
ID : 1
Format : AVC
Format/Info : Advanced Video Codec
Format profile : [email protected]
Format settings : CABAC / 5 Ref Frames
Format settings, CABAC : Yes
Format settings, Reference frames : 5 frames
Codec ID : V_MPEG4/ISO/AVC
Duration : 1 h 36 min
Bit rate : 22.6 Mb/s
Width : 1 480 pixels
Height : 1 080 pixels
Display aspect ratio : 1.370
Frame rate mode : Constant
Frame rate : 23.976 (24000/1001) FPS
Color space : YUV
Chroma subsampling : 4:2:0
Bit depth : 8 bits
Scan type : Progressive
Bits/(Pixel*Frame) : 0.589
Stream size : 15.2 GiB (99%)
Writing library : x264 core 155 r2901 7d0ff22
Encoding settings : cabac=1 / ref=5 / deblock=1:-3:-3 / analyse=0x3:0x113 / me=umh / subme=11 / psy=1 / psy_rd=1.00:0.00 / mixed_ref=1 / me_range=32 / chroma_me=1 / trellis=2 / 8x8dct=1 / cqm=0 / deadzone=21,11 / fast_pskip=0 / chroma_qp_offset=-2 / threads=12 / lookahead_threads=2 / sliced_threads=0 / nr=0 / decimate=0 / interlaced=0 / bluray_compat=0 / constrained_intra=0 / bframes=8 / b_pyramid=2 / b_adapt=2 / b_bias=0 / direct=3 / weightb=1 / open_gop=0 / weightp=2 / keyint=250 / keyint_min=23 / scenecut=40 / intra_refresh=0 / rc_lookahead=60 / rc=crf / mbtree=0 / crf=15.7 / qcomp=0.60 / qpmin=0 / qpmax=69 / qpstep=4 / vbv_maxrate=62500 / vbv_bufsize=78125 / crf_max=0.0 / nal_hrd=none / filler=0 / ip_ratio=1.30 / pb_ratio=1.20 / aq=3:0.75
Language : English
Default : Yes
Forced : No
Color range : Limited
Color primaries : BT.709
Transfer characteristics : BT.709
Matrix coefficients : BT.709

Audio
ID : 2
Format : AC-3
Format/Info : Audio Coding 3
Commercial name : Dolby Digital
Codec ID : A_AC3
Duration : 1 h 36 min
Bit rate mode : Constant
Bit rate : 192 kb/s
Channel(s) : 2 channels
Channel layout : L R
Sampling rate : 48.0 kHz
Frame rate : 31.250 FPS (1536 SPF)
Bit depth : 16 bits
Compression mode : Lossy
Stream size : 133 MiB (1%)
Service kind : Complete Main
Default : Yes
Forced : No





1 个附件 售价 大小 下载 时间

Coney.Island.1943.1080p.BluRay.x264.DD2.0-MiBR.torrent 0 金币 77.27K 252 次 23天前

#1楼
发帖时间:2019-08-26 01:01:22   |   回复数:1
liyouchai
隐世仙人♂
谢谢楼主分享资源
22天前 #2楼
游客组