conanlcg
超级版主

[2018] [其他] [剧情] [WEB-1080P] 买手枪 Comprame.Un.Revolver.2018.SPANISH.1080p.AMZN.WEBRip.DDP2.0.x264-KAIZEN 7.51G

-->

帖子完整标题:买手枪 Comprame.Un.Revolver.2018.SPANISH.1080p.AMZN.WEBRip.DDP2.0.x264-KAIZEN 7.51GB




◎译  名 买手枪 / Buy Me A Gun / 買給我一把槍
◎片  名 Cómprame un revolver
◎年  代 2018
◎产  地 墨西哥
◎类  别 剧情
◎语  言 西班牙语
◎上映日期 2018-05-14(戛纳电影节)
◎IMDb评分 6.7/10 from 378 users
◎IMDb链接 http://www.imdb.com/title/tt7425520
◎豆瓣评分 0/10 from 0 users
◎豆瓣链接 https://movie.douban.com/subject/30198375/
◎导  演 Julio Hernandez Cordon
◎编  剧 Julio Hernandez Cordon

◎标  签 墨西哥 | 导演双周 | 墨西哥电影 | 剧情 | 作者电影 | P-Mar-del-PlataB拉美电影竞赛 | 2018 | 戊戌

◎简  介

  墨西哥的近未來,女人、植被跟希望都荒蕪,黑幫、球棒與槍桿子猖獗的年代,小女孩哈克和父親以露營車為家,當父親在白粉蒸燃的幻魅裡放大苟活的欣快,她的童年則被活埋在床單和面具下,生存慾望和血性卻在體內悄悄上膛。紀錄片般的寫實風格雜混著超現實色彩的末日景象,猶如《瘋狂麥斯》裡法治憐憫稀薄的世界,亦似《蒼蠅王》孩子建制與奪權,真理人性雙雙墮落的寓言和預言。
  胡立歐?赫南德茲?柯登,1975 年生於美國北卡羅萊納州,生長於墨西哥、哥斯大黎加、瓜地馬拉,同時身兼導演、製片與編劇。其長、短片常以紀錄片風格拍攝,選用素人演員,並曾獲盧卡諾影展、多倫多影展與聖塞巴斯提安等影展獎項。

◎获奖情况

  第71届戛纳电影节(2018)
  导演双周单元(提名) 胡立欧·赫南德兹·柯登

  第66届圣塞巴斯蒂安国际电影节(2018)
  地平线大奖 胡立欧·赫南德兹·柯登
Video
ID : 1
Format : AVC
Format/Info : Advanced Video Codec
Format profile : [email protected]
Format settings : CABAC / 4 Ref Frames
Format settings, CABAC : Yes
Format settings, Reference frames : 4 frames
Codec ID : V_MPEG4/ISO/AVC
Duration : 1 h 23 min
Bit rate : 12.6 Mb/s
Width : 1 920 pixels
Height : 800 pixels
Display aspect ratio : 2.40:1
Frame rate mode : Constant
Frame rate : 24.000 FPS
Color space : YUV
Chroma subsampling : 4:2:0
Bit depth : 8 bits
Scan type : Progressive
Bits/(Pixel*Frame) : 0.342
Stream size : 7.38 GiB (98%)
Default : Yes
Forced : No
Color range : Limited
Color primaries : BT.709
Transfer characteristics : BT.709
Matrix coefficients : BT.709

Audio
ID : 2
Format : E-AC-3
Format/Info : Enhanced AC-3
Commercial name : Dolby Digital Plus
Codec ID : A_EAC3
Duration : 1 h 23 min
Bit rate mode : Constant
Bit rate : 224 kb/s
Channel(s) : 2 channels
Channel layout : L R
Sampling rate : 48.0 kHz
Frame rate : 31.250 FPS (1536 SPF)
Compression mode : Lossy
Stream size : 134 MiB (2%)
Service kind : Complete Main
Default : Yes
Forced : No

Text #1
ID : 3
Format : UTF-8
Codec ID : S_TEXT/UTF8
Codec ID/Info : UTF-8 Plain Text
Duration : 1 h 18 min
Bit rate : 37 b/s
Count of elements : 629
Stream size : 21.7 KiB (0%)
Title : Deutsch
Language : German
Default : Yes
Forced : No

Text #2
ID : 4
Format : UTF-8
Codec ID : S_TEXT/UTF8
Codec ID/Info : UTF-8 Plain Text
Duration : 1 h 18 min
Bit rate : 34 b/s
Count of elements : 629
Stream size : 19.7 KiB (0%)
Title : English
Language : English
Default : No
Forced : No

Text #3
ID : 5
Format : UTF-8
Codec ID : S_TEXT/UTF8
Codec ID/Info : UTF-8 Plain Text
Duration : 1 h 18 min
Bit rate : 37 b/s
Count of elements : 632
Stream size : 21.8 KiB (0%)
Title : Türk?e
Language : Turkish
Default : No
Forced : No





1 个附件 售价 大小 下载 时间

Comprame.Un.Revolver.2018.SPANISH.1080p.AMZN.WEBRip.DDP2.0.x264-KAIZEN.torrent 0 金币 38.11K 1407 次 24天前

#1楼
发帖时间:2019-08-25 18:56:02   |   回复数:2
911degrees
隐世仙人♂
非常感谢,谢谢分享
24天前 #2楼
liyouchai
隐世仙人♂
谢谢楼主分享资源
24天前 #3楼
游客组