conanlcg
超级版主

[2013] [其他] [剧情] [WEB-1080P] 拉巴斯 La.Paz.2013.SPANISH.1080p.AMZN.WEBRip.DDP2.0.x264-KAIZEN 4.01GB

-->

帖子完整标题:拉巴斯 La.Paz.2013.SPANISH.1080p.AMZN.WEBRip.DDP2.0.x264-KAIZEN 4.01GB




◎译  名 拉巴斯 / La Paz
◎片  名 La Paz
◎年  代 2013
◎产  地 阿根廷
◎类  别 剧情
◎语  言 西班牙语
◎IMDb评分 6.1/10 from 149 users
◎IMDb链接 http://www.imdb.com/title/tt2753654
◎豆瓣评分 0/10 from 0 users
◎豆瓣链接 https://movie.douban.com/subject/20644984/
◎片  长 73分钟
◎导  演 Santiago Loza
◎编  剧 Santiago Loza
◎主  演 Lisandro Rodríguez
      Eugenia Alonso
      Fidelia Batallanos Michel


◎标  签 阿根廷 | 阿根廷电影 | 西班牙语 | mubi | P-BerlinE论坛单元 | 2013釜山映畫祭 | 2013 | 2010s

◎简  介

  Liso, un muchacho de clase media alta, sale de una internacion psiquiatrica. Al regresar a casa de sus padres, entabla una relacion de mutua complicidad con Sonia, una maternal mucama boliviana. El joven intenta recuperar viejos amores y rearmar su vida, sin exito. Lo unico que parece sostener a Liso es el vinculo con Sonia y los momentos que pasa junto a su abuela.
Video
ID : 1
Format : AVC
Format/Info : Advanced Video Codec
Format profile : [email protected]
Format settings : CABAC / 4 Ref Frames
Format settings, CABAC : Yes
Format settings, Reference frames : 4 frames
Codec ID : V_MPEG4/ISO/AVC
Duration : 1 h 10 min
Bit rate mode : Constant
Bit rate : 7 892 kb/s
Nominal bit rate : 10 000 kb/s
Width : 1 920 pixels
Height : 1 080 pixels
Display aspect ratio : 16:9
Frame rate mode : Constant
Frame rate : 25.000 FPS
Color space : YUV
Chroma subsampling : 4:2:0
Bit depth : 8 bits
Scan type : Progressive
Bits/(Pixel*Frame) : 0.152
Stream size : 3.90 GiB (97%)
Default : Yes
Forced : No
Color range : Limited
Color primaries : BT.709
Transfer characteristics : BT.709
Matrix coefficients : BT.709

Audio
ID : 2
Format : E-AC-3
Format/Info : Enhanced AC-3
Commercial name : Dolby Digital Plus
Codec ID : A_EAC3
Duration : 1 h 10 min
Bit rate mode : Constant
Bit rate : 224 kb/s
Channel(s) : 2 channels
Channel layout : L R
Sampling rate : 48.0 kHz
Frame rate : 31.250 FPS (1536 SPF)
Compression mode : Lossy
Stream size : 113 MiB (3%)
Service kind : Complete Main
Default : Yes
Forced : No

Text
ID : 3
Format : UTF-8
Codec ID : S_TEXT/UTF8
Codec ID/Info : UTF-8 Plain Text
Duration : 1 h 6 min
Bit rate : 18 b/s
Count of elements : 360
Stream size : 8.98 KiB (0%)
Title : English [CC](SDH)
Language : English
Default : Yes
Forced : No





1 个附件 售价 大小 下载 时间

La.Paz.2013.SPANISH.1080p.AMZN.WEBRip.DDP2.0.x264-KAIZEN.torrent 0 金币 40.64K 196 次 24天前

#1楼
发帖时间:2019-08-25 18:55:16   |   回复数:3
911degrees
隐世仙人♂
非常感谢,谢谢分享
24天前 #2楼
tanchoohoon
武林盟主
感谢楼主的无私分享
24天前 #3楼
liyouchai
隐世仙人♂
谢谢楼主分享资源
24天前 #4楼
游客组