conanlcg
超级版主

[2019] [其他] [惊悚] [WEB-1080P] 反馈 Feedback.2019.1080p.AMZN.WEBRip.DDP5.1.x264-NTG 4.16GB

-->

帖子完整标题:反馈 Feedback.2019.1080p.AMZN.WEBRip.DDP5.1.x264-NTG 4.16GB




◎译  名 反馈
◎片  名 Feedback
◎年  代 2019
◎产  地 西班牙
◎类  别 惊悚
◎语  言 英语
◎上映日期 2019-03-01(西班牙)
◎IMDb评分 5.4/10 from 364 users
◎IMDb链接 http://www.imdb.com/title/tt7857374
◎豆瓣评分 0/10 from 0 users
◎豆瓣链接 https://movie.douban.com/subject/30274864/
◎导  演 Pedro C. Alonso
◎编  剧 Pedro C. Alonso / 阿尔贝托·马里尼 Alberto Marini
◎主  演 埃迪·马森 Eddie Marsan
      保罗·安德森 Paul Anderson
      伊万娜·巴克罗 Ivana Baquero
      奥利弗·库珀史密斯 Oliver Coopersmith
      Alexis Rodney
      安东尼·海德 Anthony Head
      Alana Boden
      Nacho Aldeguer
      理查德·布雷克 Richard Brake


◎标  签 西班牙 | 惊悚 | 英國 | 电影 | PedroCAlonso

◎简  介

  London. Jarvis Dolan is a charismatic host of a radio show named "The Grim Reality", about news and actuality. Loudmouth, fun and ruthless in his speeches and comments, Jarvis is the most important radio star of the moment, entertaining the audience throughout the early morning with his intelligent programs on hot topics. Previous the job, Dolan is required by his boss Norman Burgess to have a brief talk about the fate of the program by the recent poor ratings, that reporting Dolan to accept to his former partner, Andrew Wilde, as co-host, in an attempt to improvement the show. Going they two to the studio, Wilde meets Dolan's assistants, Anthony and Claire, who work making the show behind the micros. But when Dolan tries to start the program while he waits for Wilde, who had to go out a little before to back more later, he finds suddenly trapped by the circumstances: two masked men have assaulted the radio station at gunpoint and kidnapped Anthony and Claire, making him to keep the ...
Video
ID : 1
Format : AVC
Format/Info : Advanced Video Codec
Format profile : [email protected]
Format settings : CABAC / 4 Ref Frames
Format settings, CABAC : Yes
Format settings, Reference frames : 4 frames
Codec ID : V_MPEG4/ISO/AVC
Duration : 1 h 37 min
Bit rate mode : Constant
Bit rate : 5 459 kb/s
Nominal bit rate : 10 000 kb/s
Width : 1 920 pixels
Height : 800 pixels
Display aspect ratio : 2.40:1
Frame rate mode : Constant
Frame rate : 24.000 FPS
Color space : YUV
Chroma subsampling : 4:2:0
Bit depth : 8 bits
Scan type : Progressive
Bits/(Pixel*Frame) : 0.148
Stream size : 3.72 GiB (89%)
Default : Yes
Forced : No
Color range : Limited
Color primaries : BT.709
Transfer characteristics : BT.709
Matrix coefficients : BT.709

Audio
ID : 2
Format : E-AC-3
Format/Info : Enhanced AC-3
Commercial name : Dolby Digital Plus
Codec ID : A_EAC3
Duration : 1 h 37 min
Bit rate mode : Constant
Bit rate : 640 kb/s
Channel(s) : 6 channels
Channel layout : L R C LFE Ls Rs
Sampling rate : 48.0 kHz
Frame rate : 31.250 FPS (1536 SPF)
Compression mode : Lossy
Stream size : 446 MiB (10%)
Language : English
Service kind : Complete Main
Default : Yes
Forced : No





1 个附件 售价 大小 下载 时间

Feedback.2019.1080p.AMZN.WEBRip.DDP5.1.x264-NTG.torrent 0 金币 42.10K 301 次 29天前

#1楼
发帖时间:2019-08-25 18:19:47   |   回复数:2
911degrees
隐世仙人♂
非常感谢,谢谢分享
29天前 #2楼
liyouchai
隐世仙人♂
谢谢楼主分享资源
28天前 #3楼
游客组