conanlcg
超级版主

[2007] [其他] [喜剧] [BD-1080P] 鹰与鲨鱼/鲨鱼爱老鹰 Eagle.Vs.Shark.2007.1080p.BluRay.x264-aAF 6.55GB

-->

帖子完整标题:鹰与鲨鱼/鲨鱼爱老鹰 Eagle.Vs.Shark.2007.1080p.BluRay.x264-aAF 6.55GB




◎译  名 鹰与鲨鱼 / 鲨鱼爱老鹰(台) / 鹰与鲨 / 鹰对鲨
◎片  名 Eagle vs Shark
◎年  代 2007
◎产  地 新西兰
◎类  别 喜剧 / 爱情
◎语  言 英语
◎上映日期 2007-01(圣丹斯电影节) / 2007-08-30(新西兰)
◎IMDb评分 6.8/10 from 20914 users
◎IMDb链接 http://www.imdb.com/title/tt0494222
◎豆瓣评分 7.7/10 from 2469 users
◎豆瓣链接 https://movie.douban.com/subject/1962316/
◎片  长 88分钟
◎导  演 泰卡·怀蒂蒂 Taika Waititi
◎编  剧 泰卡·怀蒂蒂 Taika Waititi / 洛伦·泰勒 Loren Taylor
◎主  演 洛伦·泰勒 Loren Taylor
      杰梅奈·克莱门特 Jemaine Clement
      乔尔·托贝克 Joel Tobeck
      布莱恩·瑟金特 Brian Sergent
      克里格·霍尔 Craig Hall
      瑞切尔·豪斯 Rachel House
      莫拉格·希尔斯 Morag Hills
      伯纳德·斯图尔特 Bernard Stewart
      塔伊加·维迪提 Taika Waititi
      戴维·法恩 David Fane
      科恩·霍洛维 Cohen Holloway
      简蒂安·卢皮 Gentiane Lupi
      切尔西·普雷斯顿·克雷福德 Chelsie Preston Crayford
      亚当·加迪纳 Adam Gardiner


◎标  签 新西兰 | 独立电影 | 爱情 | 喜剧 | 新西兰电影 | 2007 | 电影 | 我看过的电影

◎简  介

  莉莉(劳伦·霍斯利 Loren Horsley 饰)是个在快餐店打工的女孩,她不漂亮,不善交际,性情有点古怪,和同样自闭的成年弟弟住在一起,但是她内心善良,还偷偷爱上了每天中午十二点准时来买一份“超大鸡”套餐的的杰罗德(杰梅奈·克莱门特 Jemaine Clement 饰)。杰罗德也是个古怪的人,他性情暴躁偏执,还惯于说谎,对整个世界充满不信任感,还有一群同样古怪的家人朋友。为了接近杰罗德,莉莉去了化妆聚会,扮成一只鲨鱼,和“战斗人争霸”卫冕冠军杰罗德对战,输给了他也成了他的女朋友。可想而知,这样两个奇怪的人,恋爱肯定无法一帆风顺……
Video
ID : 1
Format : AVC
Format/Info : Advanced Video Codec
Format profile : [email protected]
Format settings : CABAC / 4 Ref Frames
Format settings, CABAC : Yes
Format settings, Reference frames : 4 frames
Codec ID : V_MPEG4/ISO/AVC
Duration : 1 h 27 min
Bit rate : 9 226 kb/s
Width : 1 920 pixels
Height : 1 040 pixels
Display aspect ratio : 1.85:1
Frame rate mode : Constant
Frame rate : 24.000 FPS
Color space : YUV
Chroma subsampling : 4:2:0
Bit depth : 8 bits
Scan type : Progressive
Bits/(Pixel*Frame) : 0.193
Stream size : 5.50 GiB (84%)
Writing library : x264 core 84 r1416 fcf70c2
Encoding settings : cabac=1 / ref=4 / deblock=1:0:0 / analyse=0x3:0x133 / me=umh / subme=8 / psy=1 / psy_rd=1.0:0.0 / mixed_ref=1 / me_range=16 / chroma_me=1 / trellis=1 / 8x8dct=1 / cqm=0 / deadzone=21,11 / fast_pskip=0 / chroma_qp_offset=-2 / threads=12 / sliced_threads=0 / nr=0 / decimate=1 / mbaff=0 / constrained_intra=0 / bframes=3 / b_pyramid=0 / b_adapt=1 / b_bias=0 / direct=1 / wpredb=1 / wpredp=2 / keyint=250 / keyint_min=25 / scenecut=40 / intra_refresh=0 / rc_lookahead=40 / rc=2pass / mbtree=1 / bitrate=9226 / ratetol=1.0 / qcomp=0.60 / qpmin=10 / qpmax=51 / qpstep=4 / cplxblur=20.0 / qblur=0.5 / ip_ratio=1.40 / aq=1:1.00
Language : English
Default : No
Forced : No

Audio
ID : 2
Format : DTS
Format/Info : Digital Theater Systems
Codec ID : A_DTS
Duration : 1 h 27 min
Bit rate mode : Constant
Bit rate : 1 509 kb/s
Channel(s) : 6 channels
Channel layout : C L R Ls Rs LFE
Sampling rate : 48.0 kHz
Frame rate : 93.750 FPS (512 SPF)
Bit depth : 24 bits
Compression mode : Lossy
Stream size : 943 MiB (14%)
Default : Yes
Forced : No





1 个附件 售价 大小 下载 时间

Eagle.Vs.Shark.2007.1080p.BluRay.x264-aAF.torrent 0 金币 33.24K 343 次 24天前

#1楼
发帖时间:2019-08-25 02:51:45   |   回复数:3
blue23
隐世仙人♂
感谢楼主分享
24天前 #2楼
liyouchai
隐世仙人♂
谢谢楼主分享资源
24天前 #3楼
911degrees
隐世仙人♂
非常感谢,谢谢分享
24天前 #4楼
游客组