conanlcg
超级版主

[2019] [其他] [剧情] [WEB-1080P] 掃毒2:天地對決 The.White.Storm.2.Drug.Lords.2019.SUBBED.1080p.WEBRip.AAC2.0.x264-NOGRP

-->

帖子完整标题:掃毒2:天地對決 The.White.Storm.2.Drug.Lords.2019.SUBBED.1080p.WEBRip.AAC2.0.x264-NOGRP 3.56GB




◎译  名 扫毒2天地对决 / The White Storm 2: Drug Lords / 扫毒2:天地对决
◎片  名 掃毒2:天地對決
◎年  代 2019
◎产  地 中国大陆 / 中国香港
◎类  别 剧情 / 动作 / 悬疑 / 犯罪
◎语  言 汉语普通话 / 粤语
◎上映日期 2019-07-05(中国大陆) / 2019-07-16(中国香港)
◎IMDb评分 6.2/10 from 263 users
◎IMDb链接 http://www.imdb.com/title/tt8239806
◎豆瓣评分 6.2/10 from 115615 users
◎豆瓣链接 https://movie.douban.com/subject/30171425/
◎片  长 99分钟
◎导  演 邱礼涛 Herman Yau
◎编  剧 李敏 Erica Lee
◎主  演 刘德华 Andy Lau
      古天乐 Louis Koo
      苗侨伟 Kiu Wai Miu
      林嘉欣 Karena Lam
      周秀娜 Chrissie Chaw
      应采儿 Cherrie Ying
      陈家乐 Carlos Chan
      卫诗雅 Michelle Wai
      郑则仕 Kent Cheng
      张国强 Kwok Keung Cheung
      陈佩诗 Peishi Chen
      狼森 Philippe Joly
      欧阳靖 Jin Auyeung
      恭硕良 Jun Kung
      林家栋 Ka Tung Lam
      李赏 Faith Lee
      张竣杰 Chun Kit Chang
      李灿森 Sam Lee


◎标  签 香港 | 警匪 | 犯罪 | 缉毒 | 毒品 | 动作 | 华仔 | 2019

◎简  介

  毒品市场维持四分天下的格局已久,但自从地藏与墨西哥大毒枭跨境合作扩展势力,再加上一连串黑吃黑的动作,毒界变得风声鹤唳。另一方面,因儿时亲眼目睹父亲被毒品所毁而嫉毒如仇的慈善家兼金融巨子余顺天,正悬赏一亿歼灭香港最大毒贩,此举在社会上引起轩然大波。警员林正风本致力搜证拘捕地藏,毒贩却因巨额悬赏导致人身安全受威胁,他在执行保护毒贩的任务时深感无奈,但又被余顺天的出价所诱惑,陷入黑白正邪的心理挣扎。原来,余顺天和地藏有不可告人的同门关系,一场天地对决一触即发。
Video
ID : 1
Format : AVC
Format/Info : Advanced Video Codec
Format profile : [email protected]
Format settings : CABAC / 4 Ref Frames
Format settings, CABAC : Yes
Format settings, Reference frames : 4 frames
Codec ID : V_MPEG4/ISO/AVC
Duration : 1 h 39 min
Bit rate : 4 996 kb/s
Width : 1 920 pixels
Height : 800 pixels
Display aspect ratio : 2.40:1
Frame rate mode : Constant
Frame rate : 24.000 FPS
Color space : YUV
Chroma subsampling : 4:2:0
Bit depth : 8 bits
Scan type : Progressive
Bits/(Pixel*Frame) : 0.136
Stream size : 3.47 GiB (97%)
Title : The.White.Storm.2.Drug.Lords.2019.SUBBED.1080p.WEBRip.AAC2.0-NOGRP
Language : Chinese
Default : Yes
Forced : No

Audio
ID : 2
Format : AAC LC
Format/Info : Advanced Audio Codec Low Complexity
Codec ID : A_AAC-2
Duration : 1 h 39 min
Bit rate : 128 kb/s
Channel(s) : 2 channels
Channel layout : L R
Sampling rate : 44.1 kHz
Frame rate : 43.066 FPS (1024 SPF)
Compression mode : Lossy
Stream size : 91.0 MiB (2%)
Title : The.White.Storm.2.Drug.Lords.2019.SUBBED.1080p.WEBRip.AAC2.0-NOGRP
Language : Chinese
Default : Yes
Forced : No





1 个附件 售价 大小 下载 时间

The.White.Storm.2.Drug.Lords.2019.SUBBED.1080p.WEBRip.AAC2.0.x264-NOGRP.torrent 0 金币 36.16K 3325 次 29天前

#1楼
发帖时间:2019-08-25 01:17:25   |   回复数:7
liyouchai
隐世仙人♂
谢谢楼主分享资源
29天前 #2楼
chulps
一代宗师
ddd
29天前 #3楼
pwolves
武林盟主
XXFX
29天前 #4楼
fattiger7788
小有名气
感謝樓主熱心分享
28天前 #5楼
kele1204
一派掌门
感谢楼主分享~~~~~~
28天前 #6楼
911degrees
隐世仙人♂
非常感谢,谢谢分享
28天前 #7楼
jokingcheung
一代宗师
谢谢分享
28天前 #8楼
游客组