conanlcg
超级版主

[2011] [日本] [剧情] [BD-1080P] 钢之炼金术师:叹息之丘的圣星 Fullmetal.Alchemist.The.Sacred.Star.of.Milos.2011.iNTERNAL.1080p.

-->

帖子完整标题:钢之炼金术师:叹息之丘的圣星 Fullmetal.Alchemist.The.Sacred.Star.of.Milos.2011.iNTERNAL.1080p.BluRay.x264-WaLMaRT 6.61GB




◎译  名 钢之炼金术师:叹息之丘的圣星 / Fullmetal Alchemist: Swieta Gwiazda Milos / 钢之炼金术师:叹息之丘的神圣之星 / 钢之炼金术师:米洛斯的圣星
◎片  名 鋼の錬金術師 嘆きの丘の聖なる星
◎年  代 2011
◎产  地 日本
◎类  别 剧情 / 动作 / 动画 / 奇幻 / 冒险
◎语  言 日语
◎上映日期 2011-07-02(日本)
◎IMDb评分 7.0/10 from 3898 users
◎IMDb链接 http://www.imdb.com/title/tt1776196
◎豆瓣评分 7.3/10 from 9256 users
◎豆瓣链接 https://movie.douban.com/subject/5298995/
◎片  长 110分钟
◎导  演 村田和也 Kazuya Murata
◎编  剧 真保裕一 Y?ichi Shinbo / 荒川弘 Hiromu Arakawa
◎主  演 朴璐美 Romi Pak
      钉宫理惠 Rie Kugimiya
      坂本真绫 Maaya Sakamoto
      森川智之 Toshiyuki Morikawa
      木内秀信 Hidenobu Kiuchi
      三木真一郎 Shinichir? Miki
      折笠富美子 Fumiko Orikasa
      高本惠 Megumi Takamoto
      内海贤二 Kenji Utsumi
      玉川纱己子 Sakiko Tamagawa
      屋良有作 Y?saku Yara
      古岛清孝 Furushima Kiyotaka
      川田绅司 Shinji Kawada
      星野贵纪 Takanori Hoshino
      岸野幸正 Kishino Yukimasa
      梅津秀行 Hideyuki Umezu
      江川央生 Hisao Egawa
      石井康嗣 K?ji Ishii
      田中敦子 Atsuko Tanaka
      木村良平 Ryohei Kimura
      东山奈央 Nao Toyama
      佐藤健辅 Kensuke Satou
      小伏伸之 Nobuyuki Kobushi
      田中美奈实 Minami Tanaka
      小杉龙一 Ry?ichi Kosugi
      吉田敬 Takashi Yoshida


◎标  签 剧场版 | 鋼の錬金術師 | 动画 | 日本 | 日本动画 | 动漫 | 2011 | BONES

◎简  介

  在亚美斯多利斯期间,爱德华?艾尔利克(朴璐美 饰)和弟弟阿尔方斯(钉宫理恵 饰)遭遇了还有两个月就可以刑满释放的越狱犯梅尔文(森川智之 饰),结果发现对方拥有不输于艾尔利克兄弟的强大炼金术。根据梅尔文在监狱留下的蛛丝马迹,兄弟二人前往西方的大国古雷达调查。在这里他们的火车遭到神秘黑蝙蝠的袭击,同时也遇到了梅尔文寻找的少女茱莉亚?克莱顿(坂本真绫 饰)。一番混乱之后,他们相继来到位于地下的贫困之镇米洛斯。米洛斯是大国夹缝中的牺牲品,而她的人民也决定利用圣星的利用重新复兴祖国与民族……
  本片根据荒川弘的漫画原著改编。
Video
ID : 1
Format : AVC
Format/Info : Advanced Video Codec
Format profile : [email protected]
Format settings, CABAC : Yes
Format settings, ReFrames : 4 frames
Codec ID : V_MPEG4/ISO/AVC
Duration : 1h 50mn
Bit rate : 7 568 Kbps
Width : 1 920 pixels
Height : 1 080 pixels
Display aspect ratio : 16:9
Frame rate mode : Constant
Frame rate : 23.976 fps
Color space : YUV
Chroma subsampling : 4:2:0
Bit depth : 8 bits
Scan type : Progressive
Bits/(Pixel*Frame) : 0.152
Stream size : 5.73 GiB (87%)
Writing library : x264 core 142 r2431 ac76440
Encoding settings : cabac=1 / ref=4 / deblock=1:0:0 / analyse=0x3:0x113 / me=umh / subme=8 / psy=1 / psy_rd=1.00:0.00 / mixed_ref=1 / me_range=16 / chroma_me=1 / trellis=1 / 8x8dct=1 / cqm=0 / deadzone=21,11 / fast_pskip=1 / chroma_qp_offset=-2 / threads=12 / lookahead_threads=2 / sliced_threads=0 / nr=0 / decimate=1 / interlaced=0 / bluray_compat=0 / constrained_intra=0 / bframes=3 / b_pyramid=2 / b_adapt=2 / b_bias=0 / direct=3 / weightb=1 / open_gop=0 / weightp=2 / keyint=250 / keyint_min=23 / scenecut=40 / intra_refresh=0 / rc_lookahead=50 / rc=2pass / mbtree=1 / bitrate=7568 / ratetol=1.0 / qcomp=0.60 / qpmin=0 / qpmax=69 / qpstep=4 / cplxblur=20.0 / qblur=0.5 / ip_ratio=1.40 / aq=1:1.00
Default : Yes
Forced : No

Audio #1
ID : 2
Format : AC-3
Format/Info : Audio Coding 3
Mode extension : CM (complete main)
Format settings, Endianness : Big
Codec ID : A_AC3
Duration : 1h 50mn
Bit rate mode : Constant
Bit rate : 448 Kbps
Channel(s) : 6 channels
Channel positions : Front: L C R, Side: L R, LFE
Sampling rate : 48.0 KHz
Bit depth : 16 bits
Compression mode : Lossy
Stream size : 355 MiB (5%)
Title : Japanese
Language : Japanese
Default : Yes
Forced : No

Audio #2
ID : 4
Format : AC-3
Format/Info : Audio Coding 3
Mode extension : CM (complete main)
Format settings, Endianness : Big
Codec ID : A_AC3
Duration : 1h 50mn
Bit rate mode : Constant
Bit rate : 448 Kbps
Channel(s) : 6 channels
Channel positions : Front: L C R, Side: L R, LFE
Sampling rate : 48.0 KHz
Bit depth : 16 bits
Compression mode : Lossy
Stream size : 355 MiB (5%)
Title : English
Language : English
Default : No
Forced : No

Text #1
ID : 3
Format : UTF-8
Codec ID : S_TEXT/UTF8
Codec ID/Info : UTF-8 Plain Text
Title : English
Language : English
Default : Yes
Forced : No

Text #2
ID : 5
Format : UTF-8
Codec ID : S_TEXT/UTF8
Codec ID/Info : UTF-8 Plain Text
Title : English Forced
Default : No
Forced : No





1 个附件 售价 大小 下载 时间

Fullmetal.Alchemist.The.Sacred.Star.of.Milos.2011.iNTERNAL.1080p.BluRay.x264-WaLMaRT.torrent 0 金币 132.89K 1610 次 1月前

#1楼
发帖时间:2019-08-18 23:16:25   |   回复数:2
liyouchai
隐世仙人♂
谢谢楼主分享资源
1月前 #2楼
911degrees
隐世仙人♂
非常感谢,谢谢分享
1月前 #3楼
游客组