conanlcg
超级版主

[2019] [欧美] [动作] [4K-原盘] 蝙蝠侠大战忍者神龟 Batman.vs.Teenage.Mutant.Ninja.Turtles.2019.2160p.BluRay.REMUX.HEVC.DT

-->

帖子完整标题:蝙蝠侠大战忍者神龟 Batman.vs.Teenage.Mutant.Ninja.Turtles.2019.2160p.BluRay.REMUX.HEVC.DTS-HD.MA.5.1-FGT 36.69GB




◎译  名 蝙蝠侠大战忍者神龟
◎片  名 Batman Vs. Teenage Mutant Ninja Turtles
◎年  代 2019
◎产  地 美国
◎类  别 动作 / 动画 / 冒险
◎语  言 英语
◎上映日期 2019-05-14(美国)
◎IMDb评分 7.3/10 from 1057 users
◎IMDb链接 http://www.imdb.com/title/tt9775360
◎豆瓣评分 7.5/10 from 407 users
◎豆瓣链接 https://movie.douban.com/subject/30459588/
◎片  长 87分钟
◎导  演 杰克·卡斯托雷纳 Jake Castorena
◎编  剧 马尔利·哈尔彭-格雷瑟 Marly Halpern-Graser / 凯文·伊斯特曼 Kevin Eastman / 鲍勃·凯恩 Bob Kane / 比尔·芬格 Bill Finger / 彼得·拉尔德 Peter Laird / 弗雷迪·威廉姆斯二世 Freddie Williams II / 詹姆斯·廷恩四世 James Tynion IV
◎主  演 达伦·克里斯 Darren Criss
      塔拉·斯特朗 Tara Strong
      蕾切尔·布鲁姆 Rachel Bloom
      汤姆·肯尼 Tom Kenny
      特罗伊·贝克 Troy Baker
      约翰·迪·玛吉欧 John Di Maggio
      卡斯·安瓦尔 Cas Anvar
      布莱恩·乔治 Brian George
      卡洛斯·阿拉斯拉奇 Carlos Alazraqui
      凯尔·穆尼 Kyle Mooney
      巴伦·沃恩 Baron Vaughn
      艾瑞克·鲍扎 Eric Bauza
      吉姆·麦司奇门 Jim Meskimen
      基思·弗格森 Keith Ferguson
      Ben Giroux


◎标  签 DC | 动画 | 美国 | 蝙蝠侠 | 2019 | 超级英雄 | 忍者神龟 | 美国动画

◎简  介

  本片讲述了四只忍者神龟与蝙蝠侠跨时空相遇,并联手对抗最强敌人的故事。达伦·克里斯配音忍者神龟拉斐尔,SNL的凯尔·穆尼配音米开朗基罗,特洛伊·贝克配音蝙蝠侠和小丑,蕾切尔·布鲁姆配音蝙蝠少女,布莱恩·乔治配音管家阿尔佛雷德。本片将于今春与观众见面。

Video
ID : 1
Format : HEVC
Format/Info : High Efficiency Video Coding
Format profile : Main [email protected]@High
HDR format : SMPTE ST 2086, HDR10 compatible
Codec ID : V_MPEGH/ISO/HEVC
Duration : 1 h 27 min
Bit rate : 57.4 Mb/s
Width : 3 840 pixels
Height : 2 160 pixels
Display aspect ratio : 16:9
Frame rate mode : Constant
Frame rate : 23.976 (24000/1001) FPS
Color space : YUV
Chroma subsampling : 4:2:0 (Type 2)
Bit depth : 10 bits
Bits/(Pixel*Frame) : 0.288
Stream size : 34.9 GiB (95%)
Title : Batman.vs.Teenage.Mutant.Ninja.Turtles.2019.2160p.BluRay.REMUX.HEVC.DTS-HD.MA.5.1-FGT
Writing library : ATEME Titan File 3.9.0 (4.9.0.0)
Language : English
Default : No
Forced : No
Color range : Limited
Color primaries : BT.2020
Transfer characteristics : PQ
Matrix coefficients : BT.2020 non-constant
Mastering display color primaries : Display P3
Mastering display luminance : min: 0.0050 cd/m2, max: 4000 cd/m2
Maximum Content Light Level : 667 cd/m2
Maximum Frame-Average Light Level : 159 cd/m2

Audio #1
ID : 2
Format : DTS XLL
Format/Info : Digital Theater Systems
Commercial name : DTS-HD Master Audio
Codec ID : A_DTS
Duration : 1 h 27 min
Bit rate mode : Variable
Bit rate : 2 353 kb/s
Channel(s) : 6 channels
Channel layout : C L R Ls Rs LFE
Sampling rate : 48.0 kHz
Frame rate : 93.750 FPS (512 SPF)
Bit depth : 16 bits
Compression mode : Lossless
Stream size : 1.43 GiB (4%)
Title : Batman.vs.Teenage.Mutant.Ninja.Turtles.2019.2160p.BluRay.REMUX.HEVC.DTS-HD.MA.5.1-FGT
Language : English
Default : Yes
Forced : No

Audio #2
ID : 3
Format : AC-3
Format/Info : Audio Coding 3
Commercial name : Dolby Digital
Codec ID : A_AC3
Duration : 1 h 27 min
Bit rate mode : Constant
Bit rate : 640 kb/s
Channel(s) : 6 channels
Channel layout : L R C LFE Ls Rs
Sampling rate : 48.0 kHz
Frame rate : 31.250 FPS (1536 SPF)
Bit depth : 16 bits
Compression mode : Lossy
Stream size : 398 MiB (1%)
Title : Batman.vs.Teenage.Mutant.Ninja.Turtles.2019.2160p.BluRay.REMUX.HEVC.DTS-HD.MA.5.1-FGT
Language : French
Service kind : Complete Main
Default : No
Forced : No

Text #1
ID : 4
Format : UTF-8
Codec ID : S_TEXT/UTF8
Codec ID/Info : UTF-8 Plain Text
Duration : 1 h 26 min
Bit rate : 49 b/s
Count of elements : 1023
Stream size : 31.2 KiB (0%)
Title : English-SRT
Language : English
Default : Yes
Forced : No

Text #2
ID : 5
Format : PGS
Muxing mode : zlib
Codec ID : S_HDMV/PGS
Codec ID/Info : Picture based subtitle format used on BDs/HD-DVDs
Duration : 1 h 26 min
Bit rate : 33.9 kb/s
Count of elements : 2582
Stream size : 20.9 MiB (0%)
Title : English-PGS
Language : English
Default : No
Forced : No

Text #3
ID : 6
Format : PGS
Muxing mode : zlib
Codec ID : S_HDMV/PGS
Codec ID/Info : Picture based subtitle format used on BDs/HD-DVDs
Duration : 1 h 26 min
Bit rate : 27.8 kb/s
Count of elements : 1968
Stream size : 17.1 MiB (0%)
Title : French-PGS
Language : French
Default : No
Forced : No

Text #4
ID : 7
Format : PGS
Muxing mode : zlib
Codec ID : S_HDMV/PGS
Codec ID/Info : Picture based subtitle format used on BDs/HD-DVDs
Duration : 1 h 23 min
Bit rate : 125 b/s
Count of elements : 16
Stream size : 76.5 KiB (0%)
Title : French-FORCED-PGS
Language : French
Default : No
Forced : No

Menu
00:00:00.000 : en:Chapter 01
00:09:08.548 : en:Chapter 02
00:21:14.773 : en:Chapter 03
00:32:20.939 : en:Chapter 04
00:41:14.847 : en:Chapter 05
00:50:38.326 : en:Chapter 06
01:00:42.096 : en:Chapter 07
01:11:20.276 : en:Chapter 08
01:23:55.196 : en:Chapter 09





1 个附件 售价 大小 下载 时间

Batman.vs.Teenage.Mutant.Ninja.Turtles.2019.2160p.BluRay.REMUX.HEVC.DTS-HD.MA.5.1-FGT.torrent 0 金币 92.33K 420 次 1月前

#1楼
发帖时间:2019-08-18 18:35:08   |   回复数:3
liyouchai
隐世仙人♂
谢谢楼主分享资源
1月前 #2楼
911degrees
隐世仙人♂
非常感谢,谢谢分享
1月前 #3楼
jokingcheung
一代宗师
谢谢分享
1月前 #4楼
游客组