conanlcg
超级版主

[2011] [其他] [喜剧] [BD-1080P] 东成西就2011 East.Meets.West.2011.CHINESE.1080p.BluRay.x264-HANDJOB 8.54GB

-->

帖子完整标题:东成西就2011 East.Meets.West.2011.CHINESE.1080p.BluRay.x264-HANDJOB 8.54GB




◎译  名 East Meets West
◎片  名 东成西就2011
◎年  代 2011
◎产  地 中国大陆 / 香港
◎类  别 喜剧 / 动作 / 爱情 / 音乐 / 奇幻
◎语  言 粤语 / 汉语普通话
◎上映日期 2011-11-24(中国大陆)
◎IMDb评分 3.7/10 from 190 users
◎IMDb链接 http://www.imdb.com/title/tt2091885
◎豆瓣评分 3.9/10 from 50218 users
◎豆瓣链接 https://movie.douban.com/subject/6068516/
◎片  长 103分钟
◎导  演 刘镇伟 Jeffrey Lau
◎编  剧 技安 An Ji
◎主  演 陈奕迅 Eason Chan
      莫文蔚 Karen Mok
      钟镇涛 Kenny Bee
      黄奕 Yi Huang
      郑伊健 Ekin Cheng
      谭维维 Sitar Tan
      苏永康 William So Wing Hong
      房祖名 Jaycee Chan
      邓丽欣 Stephy Tang
      钟绍图 Buzz Chung
      李宗盛 Jonathan Lee
      方力申 Lik-Sun Fong
      林二汶 Eman Lam
      林一峰 Chet Lam
      唐嫣 Yan Tang
      杨幂 Mi Yang
      范逸臣 Van Fan


◎标  签 喜剧 | 香港 | 2011 | 烂片 | 搞笑 | 中国 | 爱情 | 奇幻

◎简  介

  出生在20世纪最无聊一天的尸体化妆师钟晓明(莫文蔚 饰)对爱情早已绝望,30多岁仍然孑然一身,而父亲阿B(钟镇涛 饰)和自己昔日同窗嘉嘉(黄奕 饰)的老少配婚姻则麻烦不断。嘉嘉接受周董(陈奕迅 饰)主办温拿纪念演唱会的订金后挥霍一空,阿B与钟晓明奔赴广州与周董谈判,于路意外结识梦想成为演员的出租车司机温奇(苏永康 饰)、玩音乐的富二代成玉(谭维维 饰)以及其随从小兵(房祖名 饰),一行人驾车撞上了聋哑白案师傅郑大雄(郑伊健 饰),不料郑大雄死而复生,原来他们几人分别是天龙八将转生,受命教化世人,并与叛徒夜叉展开宿命的对决……

◎获奖情况

  第3届金扫帚奖(2012)
  最令人失望集体表演

  第2届豆瓣电影鑫像奖(2012)
  豆渣单元 最渣影片(华语)(提名)
  豆渣单元 最渣导演(华语)(提名) 刘镇伟
Video
ID : 5
Format : AVC
Format/Info : Advanced Video Codec
Format profile : [email protected]
Format settings : CABAC / 5 Ref Frames
Format settings, CABAC : Yes
Format settings, Reference frames : 5 frames
Codec ID : V_MPEG4/ISO/AVC
Duration : 1 h 39 min
Bit rate : 11.6 Mb/s
Width : 1 918 pixels
Height : 816 pixels
Display aspect ratio : 2.35:1
Frame rate mode : Constant
Frame rate : 24.000 FPS
Color space : YUV
Chroma subsampling : 4:2:0
Bit depth : 8 bits
Scan type : Progressive
Bits/(Pixel*Frame) : 0.308
Stream size : 8.06 GiB (94%)
Writing library : x264 core 157 r2935 545de2f
Encoding settings : cabac=1 / ref=5 / deblock=1:-3:-3 / analyse=0x3:0x133 / me=umh / subme=10 / psy=1 / psy_rd=1.00:0.00 / mixed_ref=1 / me_range=32 / chroma_me=1 / trellis=2 / 8x8dct=1 / cqm=0 / deadzone=21,11 / fast_pskip=0 / chroma_qp_offset=-2 / threads=25 / lookahead_threads=6 / sliced_threads=0 / nr=0 / decimate=0 / interlaced=0 / bluray_compat=0 / constrained_intra=0 / bframes=16 / b_pyramid=2 / b_adapt=2 / b_bias=0 / direct=3 / weightb=1 / open_gop=0 / weightp=2 / keyint=240 / keyint_min=24 / scenecut=40 / intra_refresh=0 / rc_lookahead=60 / rc=crf / mbtree=0 / crf=16.0 / qcomp=0.60 / qpmin=0 / qpmax=69 / qpstep=4 / vbv_maxrate=62500 / vbv_bufsize=78125 / crf_max=0.0 / nal_hrd=none / filler=0 / ip_ratio=1.40 / pb_ratio=1.30 / aq=2:1.00
Default : Yes
Forced : No
Color range : Limited
Color primaries : BT.709
Transfer characteristics : BT.709
Matrix coefficients : BT.709

Audio
ID : 1
Format : AC-3
Format/Info : Audio Coding 3
Commercial name : Dolby Digital
Codec ID : A_AC3
Duration : 1 h 39 min
Bit rate mode : Constant
Bit rate : 640 kb/s
Channel(s) : 6 channels
Channel layout : L R C LFE Ls Rs
Sampling rate : 48.0 kHz
Frame rate : 31.250 FPS (1536 SPF)
Bit depth : 16 bits
Compression mode : Lossy
Stream size : 457 MiB (5%)
Title : Cantonese
Language : Chinese
Service kind : Complete Main
Default : Yes
Forced : No

Text #1
ID : 2
Format : UTF-8
Codec ID : S_TEXT/UTF8
Codec ID/Info : UTF-8 Plain Text
Duration : 1 h 37 min
Bit rate : 53 b/s
Count of elements : 1271
Stream size : 37.9 KiB (0%)
Language : English
Default : Yes
Forced : No

Text #2
ID : 3
Format : PGS
Muxing mode : zlib
Codec ID : S_HDMV/PGS
Codec ID/Info : Picture based subtitle format used on BDs/HD-DVDs
Duration : 1 h 34 min
Bit rate : 44.5 kb/s
Count of elements : 2542
Stream size : 29.9 MiB (0%)
Title : Traditional
Language : Chinese
Default : No
Forced : No

Text #3
ID : 4
Format : PGS
Muxing mode : zlib
Codec ID : S_HDMV/PGS
Codec ID/Info : Picture based subtitle format used on BDs/HD-DVDs
Duration : 1 h 34 min
Bit rate : 39.9 kb/s
Count of elements : 2542
Stream size : 26.8 MiB (0%)
Title : Simplified
Language : Chinese
Default : No
Forced : No

Menu
00:00:00.000 : en:Chapter 01
00:05:21.000 : en:Chapter 02
00:10:47.083 : en:Chapter 03
00:15:10.833 : en:Chapter 04
00:20:58.000 : en:Chapter 05
00:23:47.458 : en:Chapter 06
00:26:22.583 : en:Chapter 07
00:31:41.375 : en:Chapter 08
00:35:18.250 : en:Chapter 09
00:40:42.542 : en:Chapter 10
00:48:50.000 : en:Chapter 11
00:56:37.417 : en:Chapter 12
01:00:52.458 : en:Chapter 13
01:03:04.750 : en:Chapter 14
01:07:22.833 : en:Chapter 15
01:12:35.250 : en:Chapter 16
01:15:03.083 : en:Chapter 17
01:23:00.000 : en:Chapter 18
01:28:33.417 : en:Chapter 19
01:33:09.125 : en:Chapter 20





1 个附件 售价 大小 下载 时间

East.Meets.West.2011.CHINESE.1080p.BluRay.x264-HANDJOB.torrent 0 金币 43.22K 1015 次 1月前

#1楼
发帖时间:2019-08-18 03:01:05   |   回复数:2
911degrees
隐世仙人♂
非常感谢,谢谢分享
1月前 #2楼
liyouchai
隐世仙人♂
谢谢楼主分享资源
1月前 #3楼
游客组